继承.Inheritance.2020.1080p.AMZN.WEBRip.DDP5.1.x264-NTG 4.50 GB 2020 欧美 惊悚 WEBRip

BT种子 14天前 502

导演: 沃恩·斯坦

编剧: Matthew Kennedy

主演: 莉莉·柯林斯 / 康妮·尼尔森 / 西蒙·佩吉 / 切斯·克劳福 / 马克·理查德森二世 / 迈克尔·比奇 / 克里斯·加恩 / 何塞·埃雷拉 / 克莉丝缇娜·德萝莎 / 哈里森·斯通 / 帕特里克·沃伯顿 / 艾米丽·托尔斯 / 塔利·拉夫拉米 / Rebecca Adams / Mariyah Francis / Lucas Alexander Ayoub / Jim E. Chandler / Warren McLemore

类型: 惊悚

制片国家/地区: 美国

语言: 英语

上映日期: 2020-04-23(DirecTV) / 2020-05-22(美国)

片长: 111分钟

又名: 遺密繼承人(港) / 锁命布局(台) / 遗产

IMDb链接: tt7923220


继承的剧情简介:

  门罗的父亲是基金大亨,在父亲去世后,家族的大部分遗产都留给了母亲和她的哥哥。在接到一封神秘信件后,她来到一个森林深处的仓库,发现了被父亲囚禁30年的摩根(佩吉饰),在照料摩根的过程中,她逐渐了解了遗产分配的原因。凯特·玛拉原本是该片女主角,但日程安排促使她换了角色。


继承电影截图:



Video
ID : 1
Format : AVC
Format/Info : Advanced Video Codec
Format profile : High@L4
Format settings : CABAC / 4 Ref Frames
Format settings, CABAC : Yes
Format settings, Reference frames : 4 frames
Codec ID : V_MPEG4/ISO/AVC
Duration : 1 h 51 min
Bit rate mode : Constant
Bit rate : 5 151 kb/s
Nominal bit rate : 10 000 kb/s
Width : 1 920 pixels
Height : 1 080 pixels
Display aspect ratio : 16:9
Frame rate mode : Constant
Frame rate : 23.976 (24000/1001) FPS
Color space : YUV
Chroma subsampling : 4:2:0
Bit depth : 8 bits
Scan type : Progressive
Bits/(Pixel*Frame) : 0.104
Stream size : 4.00 GiB (89%)
Default : Yes
Forced : No
Color range : Limited
Color primaries : BT.709
Transfer characteristics : BT.709
Matrix coefficients : BT.709

Audio
ID : 2
Format : E-AC-3
Format/Info : Enhanced AC-3
Commercial name : Dolby Digital Plus
Codec ID : A_EAC3
Duration : 1 h 51 min
Bit rate mode : Constant
Bit rate : 640 kb/s
Channel(s) : 6 channels
Channel layout : L R C LFE Ls Rs
Sampling rate : 48.0 kHz
Frame rate : 31.250 FPS (1536 SPF)
Compression mode : Lossy
Stream size : 509 MiB (11%)
Language : English
Service kind : Complete Main
Default : Yes
Forced : No

Text #1
ID : 3
Format : UTF-8
Codec ID : S_TEXT/UTF8
Codec ID/Info : UTF-8 Plain Text
Duration : 1 h 42 min
Bit rate : 55 b/s
Count of elements : 1380
Stream size : 41.3 KiB (0%)
Language : English
Default : No
Forced : No

Text #2
ID : 4
Format : UTF-8
Codec ID : S_TEXT/UTF8
Codec ID/Info : UTF-8 Plain Text
Duration : 1 h 47 min
Bit rate : 54 b/s
Count of elements : 1503
Stream size : 43.1 KiB (0%)
Title : SDH
Language : English
Default : No
Forced : No


磁力链接:

magnet:?xt=urn:btih:21b659852158896f069a4e428f559b57d6192b00&dn=Inheritance.2020.1080p.AMZN.WEBRip.DDP5.1.x264-NTG&tr=http%3A%2F%2Ftracker.trackerfix.com%3A80%2Fannounce&tr=udp%3A%2F%2F9.rarbg.me%3A2990&tr=udp%3A%2F%2F9.rarbg.to%3A2950

上传的附件:

BT种子 - BT电影下载- 版权声明 1、本主题所有言论和图片纯属会员个人意见,与BT种子立场无关。
2、BT种子管理员和版主有权不事先通知发贴者而删除本文。
3、如本帖侵犯到任何版权问题,请立即告知本站,本站将及时予以删除BT种子和磁力链接并致以最深的歉意。

最新回复 (0)
返回
发新帖