灯塔下的恋人.Guia.In.Love.2015.CHINESE.1080p.BluRay.x264.DTS-FGT 8.83 GB 2015 华语 爱情 BluRay

BT种子 14天前 373

导演: 梁德森

编剧: 梁德森 / 凌志民 / 余景莉

主演: 邓丽欣 / 黄又南 / 薛凯琪 / 杨奇煜 / 刘浩龙 / 刘心悠 / 蔡瀚亿 / 陈慧敏 / 小肥 / 蔡洁 / 郑欣宜 / 尹扬明 / 林俊贤

类型: 剧情 / 爱情

制片国家/地区: 中国香港

语言: 粤语 / 汉语普通话

上映日期: 2015-09-17(中国香港) / 2016-03-11(中国大陆)

片长: 97(中国大陆) / 98分钟

又名: Guia in Love

IMDb链接: tt5221208


灯塔下的恋人的剧情简介:

  陈家声(尹扬明 饰)和周启光(林俊贤 饰)是从小到大的好友玩伴,彼此之间友谊十分坚定,然而,两人却在阴差阳错之中同时爱上了名为李玉兰的美丽女孩,两人的友谊就此产生了裂痕。最终,李玉兰选择了陈家声,失意的周启光背井离乡,远离这片令他伤心的土地。

  一晃眼几十年过去,周启光从默默无闻的莽撞青年一跃成为了家财万贯的澳门富豪,而他的女儿黛比(邓丽欣 饰)则爱上了赌场浪荡荷官子华(黄又南 饰)。那边厢,陈家声和李玉兰的女儿在车祸中不幸去世,留下女婿杨振强(刘浩龙 饰)独自带着儿子滔滔相依为命。人小鬼大的滔滔不忍看见父亲形单影只,于是联手同学小欣,企图将杨振强和小欣的阿姨梓芬(刘心悠 饰)撮合到一起。


电影截图:

Video
ID : 1
Format : AVC
Format/Info : Advanced Video Codec
Format profile : High@L4.1
Format settings : CABAC / 4 Ref Frames
Format settings, CABAC : Yes
Format settings, Reference frames : 4 frames
Codec ID : V_MPEG4/ISO/AVC
Duration : 1 h 37 min
Bit rate : 11.5 Mb/s
Width : 1 920 pixels
Height : 804 pixels
Display aspect ratio : 2.40:1
Frame rate mode : Constant
Frame rate : 24.000 FPS
Color space : YUV
Chroma subsampling : 4:2:0
Bit depth : 8 bits
Scan type : Progressive
Bits/(Pixel*Frame) : 0.310
Stream size : 7.80 GiB (88%)
Title : 灯塔下的恋人.Guia.In.Love.2015.CHINESE.1080p.BluRay.x264.DTS-FGT
Writing library : x264 core 148 r2748 97eaef2
Encoding settings : cabac=1 / ref=4 / deblock=1:-2:-2 / analyse=0x3:0x113 / me=umh / subme=9 / psy=1 / psy_rd=1.00:0.15 / mixed_ref=1 / me_range=16 / chroma_me=1 / trellis=2 / 8x8dct=1 / cqm=0 / deadzone=21,11 / fast_pskip=1 / chroma_qp_offset=-3 / threads=24 / lookahead_threads=3 / sliced_threads=0 / nr=0 / decimate=1 / interlaced=0 / bluray_compat=0 / constrained_intra=0 / bframes=3 / b_pyramid=2 / b_adapt=1 / b_bias=0 / direct=3 / weightb=1 / open_gop=0 / weightp=2 / keyint=250 / keyint_min=25 / scenecut=40 / intra_refresh=0 / rc_lookahead=50 / rc=2pass / mbtree=1 / bitrate=11500 / ratetol=1.0 / qcomp=0.60 / qpmin=0 / qpmax=69 / qpstep=4 / cplxblur=20.0 / qblur=0.5 / vbv_maxrate=31250 / vbv_bufsize=31250 / nal_hrd=none / filler=0 / ip_ratio=1.40 / aq=1:1.00
Language : Chinese
Default : Yes
Forced : No

Audio
ID : 2
Format : DTS
Format/Info : Digital Theater Systems
Codec ID : A_DTS
Duration : 1 h 37 min
Bit rate mode : Constant
Bit rate : 1 509 kb/s
Channel(s) : 6 channels
Channel layout : C L R Ls Rs LFE
Sampling rate : 48.0 kHz
Frame rate : 93.750 FPS (512 SPF)
Bit depth : 16 bits
Compression mode : Lossy
Stream size : 1.03 GiB (12%)
Title : Guia.In.Love.2015.CHINESE.1080p.BluRay.x264.DTS-FGT
Language : Chinese
Default : Yes
Forced : No

Text
ID : 3
Format : UTF-8
Codec ID : S_TEXT/UTF8
Codec ID/Info : UTF-8 Plain Text
Duration : 1 h 31 min
Bit rate : 34 b/s
Count of elements : 861
Stream size : 23.4 KiB (0%)
Language : English
Default : Yes
Forced : No

Menu
00:00:00.000 : en:Chapter 01
00:08:05.416 : en:Chapter 02
00:17:30.541 : en:Chapter 03
00:24:47.958 : en:Chapter 04
00:32:35.333 : en:Chapter 05
00:40:31.083 : en:Chapter 06
00:47:31.791 : en:Chapter 07
00:56:59.916 : en:Chapter 08
01:03:10.458 : en:Chapter 09
01:15:09.666 : en:Chapter 10
01:23:16.083 : en:Chapter 11
01:29:49.750 : en:Chapter 12


磁力链接:

magnet:?xt=urn:btih:d83d1d5fa088b7b2a9b19acea0cee4e321882ae0&dn=Guia.In.Love.2015.CHINESE.1080p.BluRay.x264.DTS-FGT&tr=http%3A%2F%2Ftracker.trackerfix.com%3A80%2Fannounce&tr=udp%3A%2F%2F9.rarbg.me%3A2750&tr=udp%3A%2F%2F9.rarbg.to%3A2880

上传的附件:

BT种子 - BT电影下载- 版权声明 1、本主题所有言论和图片纯属会员个人意见,与BT种子立场无关。
2、BT种子管理员和版主有权不事先通知发贴者而删除本文。
3、如本帖侵犯到任何版权问题,请立即告知本站,本站将及时予以删除BT种子和磁力链接并致以最深的歉意。

最新回复 (0)
返回
发新帖