临终囧事.Mortician.2013.CHINESE.1080p.BluRay.x264.DTS-FGT 8.60 GB 2013 华语 喜剧 恐怖 BluRay

BT种子 14天前 326

导演: 钱江汉

编剧: 文隽 / 丁小洋

主演: 包贝尔 / 詹瑞文 / 文咏珊 / 冯淬帆 / 莫小棋 / 景岗山 / 杨恭如 / 林子聪 / 张超

类型: 喜剧 / 恐怖

制片国家/地区: 中国大陆

语言: 汉语普通话

上映日期: 2013-05-16(中国大陆)

片长: 95分钟

又名: Mortician

IMDb链接: tt4263056


临终囧事的剧情简介:

  牛小波(包贝尔 饰)出生在一个棺材世家,几代人以做棺材为生。因小时候一次离奇的事故,小波永远失去了“笑容”,无论碰上多么开心的事他都笑不出来,被人们称之为怪人,好在前些年一直生活在农村老家,他本人也没觉的不会笑是什么大不了的离奇事。渐渐长大成人的小波决定走出大山,到外面闯世界,可外面的世界虽精彩,闯起来却很无奈,原本想离开老家的棺材铺谋一份体面的工作,可最终还是进了殡仪馆工作,这令他多少有些失落。随着时间的推移,小波在殡仪馆领略了世间另一面的人生百态,目睹了各种各样家庭在亲人化为一缕青烟时所表现出的真实状态,明白了他先前没有悟到的人生百味...... 


临终囧事电影截图:

Video
ID : 1
Format : AVC
Format/Info : Advanced Video Codec
Format profile : High@L4.1
Format settings : CABAC / 4 Ref Frames
Format settings, CABAC : Yes
Format settings, Reference frames : 4 frames
Codec ID : V_MPEG4/ISO/AVC
Duration : 1 h 34 min
Bit rate : 11.5 Mb/s
Width : 1 920 pixels
Height : 804 pixels
Display aspect ratio : 2.40:1
Frame rate mode : Constant
Frame rate : 24.000 FPS
Color space : YUV
Chroma subsampling : 4:2:0
Bit depth : 8 bits
Scan type : Progressive
Bits/(Pixel*Frame) : 0.310
Stream size : 7.60 GiB (88%)
Title : 临终囧事.Mortician.2013.CHINESE.1080p.BluRay.x264.DTS-FGT
Writing library : x264 core 148 r2748 97eaef2
Encoding settings : cabac=1 / ref=4 / deblock=1:-2:-2 / analyse=0x3:0x113 / me=umh / subme=9 / psy=1 / psy_rd=1.00:0.15 / mixed_ref=1 / me_range=16 / chroma_me=1 / trellis=2 / 8x8dct=1 / cqm=0 / deadzone=21,11 / fast_pskip=1 / chroma_qp_offset=-3 / threads=24 / lookahead_threads=3 / sliced_threads=0 / nr=0 / decimate=1 / interlaced=0 / bluray_compat=0 / constrained_intra=0 / bframes=3 / b_pyramid=2 / b_adapt=1 / b_bias=0 / direct=3 / weightb=1 / open_gop=0 / weightp=2 / keyint=250 / keyint_min=25 / scenecut=40 / intra_refresh=0 / rc_lookahead=50 / rc=2pass / mbtree=1 / bitrate=11500 / ratetol=1.0 / qcomp=0.60 / qpmin=0 / qpmax=69 / qpstep=4 / cplxblur=20.0 / qblur=0.5 / vbv_maxrate=31250 / vbv_bufsize=31250 / nal_hrd=none / filler=0 / ip_ratio=1.40 / aq=1:1.00
Language : Chinese
Default : Yes
Forced : No

Audio
ID : 2
Format : DTS
Format/Info : Digital Theater Systems
Codec ID : A_DTS
Duration : 1 h 34 min
Bit rate mode : Constant
Bit rate : 1 509 kb/s
Channel(s) : 6 channels
Channel layout : C L R Ls Rs LFE
Sampling rate : 48.0 kHz
Frame rate : 93.750 FPS (512 SPF)
Bit depth : 16 bits
Compression mode : Lossy
Stream size : 1 022 MiB (12%)
Title : Mortician.2013.CHINESE.1080p.BluRay.x264.DTS-FGT
Language : Chinese
Default : Yes
Forced : No

Text
ID : 3
Format : UTF-8
Codec ID : S_TEXT/UTF8
Codec ID/Info : UTF-8 Plain Text
Duration : 1 h 29 min
Bit rate : 52 b/s
Count of elements : 1334
Stream size : 34.1 KiB (0%)
Language : English
Default : Yes
Forced : No

Menu
00:00:00.000 : en:Chapter 1
00:04:38.208 : en:Chapter 2
00:10:03.250 : en:Chapter 3
00:14:47.375 : en:Chapter 4
00:19:40.583 : en:Chapter 5
00:23:54.250 : en:Chapter 6
00:27:52.458 : en:Chapter 7
00:33:51.417 : en:Chapter 8
00:36:31.000 : en:Chapter 9
00:40:19.875 : en:Chapter 10
00:46:42.417 : en:Chapter 11
00:52:59.250 : en:Chapter 12
00:59:02.125 : en:Chapter 13
01:02:13.917 : en:Chapter 14
01:06:20.333 : en:Chapter 15
01:12:08.500 : en:Chapter 16
01:15:05.708 : en:Chapter 17
01:18:44.750 : en:Chapter 18
01:25:58.417 : en:Chapter 19
01:31:34.958 : en:Chapter 20


磁力链接:

magnet:?xt=urn:btih:e8b00141220cbb8db1c57ff50ffa0e3f6310bb7d&dn=Mortician.2013.CHINESE.1080p.BluRay.x264.DTS-FGT&tr=http%3A%2F%2Ftracker.trackerfix.com%3A80%2Fannounce&tr=udp%3A%2F%2F9.rarbg.me%3A2870&tr=udp%3A%2F%2F9.rarbg.to%3A2750

上传的附件:

BT种子 - BT电影下载- 版权声明 1、本主题所有言论和图片纯属会员个人意见,与BT种子立场无关。
2、BT种子管理员和版主有权不事先通知发贴者而删除本文。
3、如本帖侵犯到任何版权问题,请立即告知本站,本站将及时予以删除BT种子和磁力链接并致以最深的歉意。

最新回复 (0)
返回
发新帖