胭脂扣.Rouge.1987.CHINESE.1080p.BluRay.x264.DTS-FGT 8.83 GB 80年代 华语 爱情 奇幻 BluRay

BT种子 14天前 265

导演: 关锦鹏

编剧: 邱刚健 / 李碧华

主演: 梅艳芳 / 张国荣 / 万梓良 / 朱宝意 / 温碧霞 / 谭倩红 / 谢贤 / 汪禹 / 刘家荣 / 惠英红 / 朱瑞棠

类型: 剧情 / 爱情 / 奇幻

制片国家/地区: 中国香港

语言: 粤语 / 汉语普通话

上映日期: 1987-12-05(中国台湾)

片长: 96分钟(香港)

又名: Rouge

IMDb链接: tt0093258


胭脂扣的剧情简介:

  报社记者袁永定(万梓良 饰)遇到了一位前来登寻人广告的女子如花(梅艳芳 饰),无意中才发现了该名冷艳的女子原是鬼魂,早在50年前,她是一名红牌妓女,结识了一名纨绔子弟十二少陈振邦(张国荣 饰)。如花深深爱上了这名多情的公子,两人已到了谈婚论嫁的地步,由于身份悬殊,遭到了十二少家人的极力反对。无奈之下,他们以胭脂扣定情,一起吞鸦片殉情。如花未能在地府看到自己的爱人,便到阳间寻找。

  如花在两名记者的帮助下,得知原来当年十二少被人救活了,如今生活潦倒。面对十二少的懦弱,如花伤心欲绝,把胭脂扣返还,回到阴间投胎转世。


胭脂扣 获奖情况:

第24届台北金马影展  (1987)

金马奖 最佳剧情片(提名)

金马奖 最佳女主角 梅艳芳

金马奖 最佳摄影 黄仲标

金马奖 最佳美术设计 朴若木 / 马光荣

金马奖 最佳造型设计(提名) 朴若木 / 马光荣

金马奖 最佳剪辑(提名) 张耀宗

第8届香港电影金像奖  (1989)

最佳电影 成龙

最佳导演 关锦鹏

最佳编剧 邱刚健 / 李碧华

最佳男主角(提名) 张国荣

最佳女主角 梅艳芳

最佳摄影(提名) 黄仲标

最佳剪接 张耀宗

最佳美术指导(提名) 朴若木 / 马光荣

最佳原创电影音乐 黎小田

最佳原创电影歌曲 梅艳芳 / 邓景生 / 黎小田


电影截图:

Video
ID : 1
Format : AVC
Format/Info : Advanced Video Codec
Format profile : High@L4.1
Format settings : CABAC / 4 Ref Frames
Format settings, CABAC : Yes
Format settings, Reference frames : 4 frames
Codec ID : V_MPEG4/ISO/AVC
Duration : 1 h 37 min
Bit rate : 11.5 Mb/s
Width : 1 920 pixels
Height : 1 036 pixels
Display aspect ratio : 1.85:1
Frame rate mode : Constant
Frame rate : 23.976 (24000/1001) FPS
Color space : YUV
Chroma subsampling : 4:2:0
Bit depth : 8 bits
Scan type : Progressive
Bits/(Pixel*Frame) : 0.241
Stream size : 7.80 GiB (88%)
Title : 胭脂扣.Rouge.1987.CHINESE.1080p.BluRay.x264.DTS-FGT
Writing library : x264 core 148 r2748 97eaef2
Encoding settings : cabac=1 / ref=4 / deblock=1:-2:-2 / analyse=0x3:0x113 / me=umh / subme=9 / psy=1 / psy_rd=1.00:0.15 / mixed_ref=1 / me_range=16 / chroma_me=1 / trellis=2 / 8x8dct=1 / cqm=0 / deadzone=21,11 / fast_pskip=1 / chroma_qp_offset=-3 / threads=24 / lookahead_threads=3 / sliced_threads=0 / nr=0 / decimate=1 / interlaced=0 / bluray_compat=0 / constrained_intra=0 / bframes=3 / b_pyramid=2 / b_adapt=1 / b_bias=0 / direct=3 / weightb=1 / open_gop=0 / weightp=2 / keyint=250 / keyint_min=25 / scenecut=40 / intra_refresh=0 / rc_lookahead=50 / rc=2pass / mbtree=1 / bitrate=11500 / ratetol=1.0 / qcomp=0.60 / qpmin=0 / qpmax=69 / qpstep=4 / cplxblur=20.0 / qblur=0.5 / vbv_maxrate=31250 / vbv_bufsize=31250 / nal_hrd=none / filler=0 / ip_ratio=1.40 / aq=1:1.00
Language : Chinese
Default : Yes
Forced : No

Audio
ID : 2
Format : DTS
Format/Info : Digital Theater Systems
Codec ID : A_DTS
Duration : 1 h 37 min
Bit rate mode : Constant
Bit rate : 1 509 kb/s
Channel(s) : 6 channels
Channel layout : C L R Ls Rs LFE
Sampling rate : 48.0 kHz
Frame rate : 93.750 FPS (512 SPF)
Bit depth : 16 bits
Compression mode : Lossy
Stream size : 1.02 GiB (12%)
Title : 胭脂扣.Rouge.1987.CHINESE.1080p.BluRay.x264.DTS-FGT
Language : Chinese
Default : Yes
Forced : No

Text
ID : 3
Format : UTF-8
Codec ID : S_TEXT/UTF8
Codec ID/Info : UTF-8 Plain Text
Duration : 1 h 33 min
Bit rate : 36 b/s
Count of elements : 1085
Stream size : 24.7 KiB (0%)
Language : English
Default : Yes
Forced : No

Menu
00:00:00.000 : en:Chapter 1
00:08:58.580 : en:Chapter 2
00:13:51.622 : en:Chapter 3
00:19:43.808 : en:Chapter 4
00:34:45.917 : en:Chapter 5
00:42:05.731 : en:Chapter 6
00:51:25.249 : en:Chapter 7
01:01:21.386 : en:Chapter 8
01:08:15.925 : en:Chapter 9
01:15:16.137 : en:Chapter 10
01:24:18.887 : en:Chapter 11
01:30:02.647 : en:Chapter 12


磁力链接:

magnet:?xt=urn:btih:c2aa7af654534b188527c12c1b1a801bf787536a&dn=Rouge.1987.CHINESE.1080p.BluRay.x264.DTS-FGT&tr=http%3A%2F%2Ftracker.trackerfix.com%3A80%2Fannounce&tr=udp%3A%2F%2F9.rarbg.me%3A2930&tr=udp%3A%2F%2F9.rarbg.to%3A2880

上传的附件:

BT种子 - BT电影下载- 版权声明 1、本主题所有言论和图片纯属会员个人意见,与BT种子立场无关。
2、BT种子管理员和版主有权不事先通知发贴者而删除本文。
3、如本帖侵犯到任何版权问题,请立即告知本站,本站将及时予以删除BT种子和磁力链接并致以最深的歉意。

最新回复 (0)
返回
发新帖