倚天屠龙记之魔教教主.The.Kung.Fu.Cult.Master.1993.CHINESE.1080p.BluRay.x264.DTS-FGT 9.16 GB 90年代 华语 动作 奇幻 BluRay

BT种子 14天前 322

导演: 王晶

编剧: 王晶 / 金庸

主演: 李连杰 / 张敏 / 邱淑贞 / 黎姿 / 洪金宝 / 吴镇宇 / 吴耀汉 / 曹荣 / 闫怀礼 / 梁家仁 / 邹兆龙 / 田启文 / 张春仲 / 姬麒麟

类型: 动作 / 奇幻 / 武侠 / 古装

制片国家/地区: 中国香港

语言: 粤语

上映日期: 1993-12-18(中国香港)

片长: 99分钟 / 105分钟

又名: Kung Fu Cult Master

IMDb链接: tt0108624


倚天屠龙记之魔教教主的剧情简介:

  张翠山(吴镇宇 饰)携妻及子张无忌(李连杰 饰)从孤岛出发赶去给其师父贺百岁大寿的途中,被人暗算,张无忌中寒冰掌。在武当山,张翠山和妻子被各大门派逼迫致死,张无忌也不再能练习武功,只能靠张三丰每日所输真气得以残活。张三丰的举动引来宋青书(邹兆龙 饰)的妒忌,他联合了峨眉女弟子周芷若(黎姿 饰)共同对付张无 忌。明教圣女小昭(邱淑贞 饰)令张无忌改变命运,使其先在断崖上遇到高人治好体内寒冰毒、学会九成“九阳神功”,又在明教禁地练得“乾坤大挪移心法”。得知蒙古郡主赵敏(张敏 饰)设计令江湖六大派围攻光明顶想歼灭明教时,张无忌决意为拯救明教赴汤蹈火。


电影截图:

Video
ID : 1
Format : AVC
Format/Info : Advanced Video Codec
Format profile : High@L4.1
Format settings : CABAC / 4 Ref Frames
Format settings, CABAC : Yes
Format settings, Reference frames : 4 frames
Codec ID : V_MPEG4/ISO/AVC
Duration : 1 h 40 min
Bit rate : 11.5 Mb/s
Width : 1 920 pixels
Height : 1 080 pixels
Display aspect ratio : 16:9
Frame rate mode : Constant
Frame rate : 24.000 FPS
Color space : YUV
Chroma subsampling : 4:2:0
Bit depth : 8 bits
Scan type : Progressive
Bits/(Pixel*Frame) : 0.231
Stream size : 8.10 GiB (88%)
Title : 倚天屠龙记之魔教教主.The.Kung.Fu.Cult.Master.1993.CHINESE.1080p.BluRay.x264.DTS-FGT
Writing library : x264 core 148 r2748 97eaef2
Encoding settings : cabac=1 / ref=4 / deblock=1:-2:-2 / analyse=0x3:0x113 / me=umh / subme=9 / psy=1 / psy_rd=1.00:0.15 / mixed_ref=1 / me_range=16 / chroma_me=1 / trellis=2 / 8x8dct=1 / cqm=0 / deadzone=21,11 / fast_pskip=1 / chroma_qp_offset=-3 / threads=24 / lookahead_threads=3 / sliced_threads=0 / nr=0 / decimate=1 / interlaced=0 / bluray_compat=0 / constrained_intra=0 / bframes=3 / b_pyramid=2 / b_adapt=1 / b_bias=0 / direct=3 / weightb=1 / open_gop=0 / weightp=2 / keyint=250 / keyint_min=25 / scenecut=40 / intra_refresh=0 / rc_lookahead=50 / rc=2pass / mbtree=1 / bitrate=11500 / ratetol=1.0 / qcomp=0.60 / qpmin=0 / qpmax=69 / qpstep=4 / cplxblur=20.0 / qblur=0.5 / vbv_maxrate=31250 / vbv_bufsize=31250 / nal_hrd=none / filler=0 / ip_ratio=1.40 / aq=1:1.00
Language : Chinese
Default : Yes
Forced : No

Audio
ID : 2
Format : DTS
Format/Info : Digital Theater Systems
Codec ID : A_DTS
Duration : 1 h 40 min
Bit rate mode : Constant
Bit rate : 1 509 kb/s
Channel(s) : 6 channels
Channel layout : C L R Ls Rs LFE
Sampling rate : 48.0 kHz
Frame rate : 93.750 FPS (512 SPF)
Bit depth : 16 bits
Compression mode : Lossy
Stream size : 1.06 GiB (12%)
Title : The.Kung.Fu.Cult.Master.1993.CHINESE.1080p.BluRay.x264.DTS-FGT
Language : Chinese
Default : Yes
Forced : No

Text
ID : 3
Format : UTF-8
Codec ID : S_TEXT/UTF8
Codec ID/Info : UTF-8 Plain Text
Duration : 1 h 38 min
Bit rate : 64 b/s
Count of elements : 1389
Stream size : 46.9 KiB (0%)
Language : English
Default : Yes
Forced : No

Menu
00:00:00.000 : en:Chapter 1
00:05:06.415 : en:Chapter 2
00:09:21.416 : en:Chapter 3
00:15:58.415 : en:Chapter 4
00:20:02.333 : en:Chapter 5
00:26:08.415 : en:Chapter 6
00:31:12.833 : en:Chapter 7
00:35:12.041 : en:Chapter 8
00:40:24.083 : en:Chapter 9
00:45:13.000 : en:Chapter 10
00:50:23.416 : en:Chapter 11
00:55:38.000 : en:Chapter 12
01:00:11.416 : en:Chapter 13
01:05:22.166 : en:Chapter 14
01:10:43.082 : en:Chapter 15
01:15:02.416 : en:Chapter 16
01:20:28.250 : en:Chapter 17
01:27:04.000 : en:Chapter 18
01:31:52.000 : en:Chapter 19
01:37:48.000 : en:Chapter 20


磁力链接:

magnet:?xt=urn:btih:7d2a57b66c4aae8ff6b340b78155dbd21ba3ebf7&dn=The.Kung.Fu.Cult.Master.1993.CHINESE.1080p.BluRay.x264.DTS-FGT&tr=http%3A%2F%2Ftracker.trackerfix.com%3A80%2Fannounce&tr=udp%3A%2F%2F9.rarbg.me%3A2840&tr=udp%3A%2F%2F9.rarbg.to%3A2740

上传的附件:

BT种子 - BT电影下载- 版权声明 1、本主题所有言论和图片纯属会员个人意见,与BT种子立场无关。
2、BT种子管理员和版主有权不事先通知发贴者而删除本文。
3、如本帖侵犯到任何版权问题,请立即告知本站,本站将及时予以删除BT种子和磁力链接并致以最深的歉意。

最新回复 (0)
返回
发新帖