方世玉与胡惠乾.The.Shaolin.Avengers.1976.CHINESE.1080p.BluRay.x264.DD2.0-FGT 8.31 GB 国语 更早 华语 动作 BluRay

BT种子 14天前 228

导演: 张彻 / 午马

编剧: 张彻 / 倪匡

主演: 傅声 / 戚冠軍 / 梁家仁 / 蔡弘 / 施思

类型: 剧情 / 动作

制片国家/地区: 中国香港

语言: 汉语普通话

上映日期: 1976-06-18

片长: West Germany: 97 分钟

又名: The Shaolin Avengers

IMDb链接: tt0074513


方世玉与胡惠乾的剧情简介:

  武当派败类白眉道人、冯道德、雷老虎等,勾结清廷,甘受驱使来残杀武林中人,方世玉之父母方济亨、苗翠花,胡惠乾之父皆为雷等所杀;胡一次 寻仇不遂,为方所救,后随方往少林寺练就高强武功,影片最后少林与武当之武林自相残杀的画面,出现一幕令人触目惊心的大结局。


电影截图:

Video
ID : 1
Format : AVC
Format/Info : Advanced Video Codec
Format profile : High@L4.1
Format settings : CABAC / 4 Ref Frames
Format settings, CABAC : Yes
Format settings, Reference frames : 4 frames
Codec ID : V_MPEG4/ISO/AVC
Duration : 1 h 36 min
Bit rate : 11.5 Mb/s
Width : 1 920 pixels
Height : 812 pixels
Display aspect ratio : 2.35:1
Frame rate mode : Constant
Frame rate : 23.976 (24000/1001) FPS
Color space : YUV
Chroma subsampling : 4:2:0
Bit depth : 8 bits
Scan type : Progressive
Bits/(Pixel*Frame) : 0.308
Stream size : 7.79 GiB (94%)
Title : 方世玉与胡惠乾.The.Shaolin.Avengers.1976.CHINESE.1080p.BluRay.x264.DD2.0-FGT
Writing library : x264 core 148 r2748 97eaef2
Encoding settings : cabac=1 / ref=4 / deblock=1:-2:-2 / analyse=0x3:0x113 / me=umh / subme=9 / psy=1 / psy_rd=1.00:0.15 / mixed_ref=1 / me_range=16 / chroma_me=1 / trellis=2 / 8x8dct=1 / cqm=0 / deadzone=21,11 / fast_pskip=1 / chroma_qp_offset=-3 / threads=24 / lookahead_threads=3 / sliced_threads=0 / nr=0 / decimate=1 / interlaced=0 / bluray_compat=0 / constrained_intra=0 / bframes=3 / b_pyramid=2 / b_adapt=1 / b_bias=0 / direct=3 / weightb=1 / open_gop=0 / weightp=2 / keyint=250 / keyint_min=25 / scenecut=40 / intra_refresh=0 / rc_lookahead=50 / rc=2pass / mbtree=1 / bitrate=11500 / ratetol=1.0 / qcomp=0.60 / qpmin=0 / qpmax=69 / qpstep=4 / cplxblur=20.0 / qblur=0.5 / vbv_maxrate=31250 / vbv_bufsize=31250 / nal_hrd=none / filler=0 / ip_ratio=1.40 / aq=1:1.00
Default : Yes
Forced : No

Audio #1
ID : 2
Format : AC-3
Format/Info : Audio Coding 3
Commercial name : Dolby Digital
Codec ID : A_AC3
Duration : 1 h 36 min
Bit rate mode : Constant
Bit rate : 384 kb/s
Channel(s) : 2 channels
Channel layout : L R
Sampling rate : 48.0 kHz
Frame rate : 31.250 FPS (1536 SPF)
Bit depth : 16 bits
Compression mode : Lossy
Stream size : 266 MiB (3%)
Title : 方世玉与胡惠乾.The.Shaolin.Avengers.1976.CHINESE.1080p.BluRay.x264.DD2.0-FGT
Language : Chinese
Service kind : Complete Main
Default : Yes
Forced : No

Audio #2
ID : 3
Format : AC-3
Format/Info : Audio Coding 3
Commercial name : Dolby Digital
Codec ID : A_AC3
Duration : 1 h 36 min
Bit rate mode : Constant
Bit rate : 384 kb/s
Channel(s) : 2 channels
Channel layout : L R
Sampling rate : 48.0 kHz
Frame rate : 31.250 FPS (1536 SPF)
Bit depth : 16 bits
Compression mode : Lossy
Stream size : 266 MiB (3%)
Title : 方世玉与胡惠乾.The.Shaolin.Avengers.1976.CHINESE.1080p.BluRay.x264.DD2.0-FGT
Language : English
Service kind : Complete Main
Default : No
Forced : No

Text
ID : 4
Format : UTF-8
Codec ID : S_TEXT/UTF8
Codec ID/Info : UTF-8 Plain Text
Duration : 1 h 31 min
Bit rate : 18 b/s
Count of elements : 531
Stream size : 12.6 KiB (0%)
Language : English
Default : Yes
Forced : No

Menu
00:00:00.000 : en:Kapitel 01
00:10:12.194 : en:Kapitel 02
00:27:18.970 : en:Kapitel 03
00:41:34.992 : en:Kapitel 04
01:06:49.922 : en:Kapitel 05
01:21:57.495 : en:Kapitel 06


磁力链接:

magnet:?xt=urn:btih:26148936bd3b0d4f07d3b6a23ea7527abb231a92&dn=The.Shaolin.Avengers.1976.CHINESE.1080p.BluRay.x264.DD2.0-FGT&tr=http%3A%2F%2Ftracker.trackerfix.com%3A80%2Fannounce&tr=udp%3A%2F%2F9.rarbg.me%3A2810&tr=udp%3A%2F%2F9.rarbg.to%3A2760

上传的附件:

BT种子 - BT电影下载- 版权声明 1、本主题所有言论和图片纯属会员个人意见,与BT种子立场无关。
2、BT种子管理员和版主有权不事先通知发贴者而删除本文。
3、如本帖侵犯到任何版权问题,请立即告知本站,本站将及时予以删除BT种子和磁力链接并致以最深的歉意。

最新回复 (0)
返回
发新帖