野性的呼唤.The.Call.of.the.Wild.2020.1080p.WEBRip.DD5.1.x264-CM 3.85 GB 2020 欧美 剧情 动画 WEBRip

BT种子 2月前 642

野性的呼唤电影海报

导演: 克里斯·桑德斯

编剧: 迈克尔·格林 / 杰克·伦敦

主演: 哈里森·福特 / 丹·史蒂文斯 / 凯伦·吉兰 / 布莱德利·惠特福德 / 珍·路易莎·凯利 / 泰瑞·诺塔里 / 卡卡琪 / 奥玛·希 / 科林·伍德尔 / 韦斯·布朗 / 安东尼·莫利纳利 / 布拉德·格林奎斯特 / 亚当·弗格斯 / 阿莱克斯·索洛维茨 / 卡尔·马金恩 / 希瑟·麦克普什 / 哈尔·戴恩 / G·拉里·巴特勒 / 桑蒂尔·亚历克西斯·瓦奎兹 / 特洛伊·迪林格

类型: 剧情 / 动画 / 冒险

制片国家/地区: 美国

语言: 英语

上映日期: 2020-04-03(中国大陆) / 2020-02-21(美国)

片长: 110分钟

又名: 荒野的呼唤 / 极地守护犬(港/台) / 绝境长征

IMDb链接: tt7504726


野性的呼唤的剧情简介 · · · · · ·

  影片改编自杰克·伦敦同名小说,导演克里斯·桑德斯([疯狂原始人]),编剧迈克尔·格林[(异形:契约])。该片以克朗岱克淘金热为背景,围绕淘金者约翰·桑顿(福特饰)的历险故事展开。


野性的呼唤电影截图:

野性的呼唤1
野性的呼唤2
野性的呼唤3

Video
ID : 1
Format : AVC
Format/Info : Advanced Video Codec
Format profile : High@L4
Format settings : CABAC / 2 Ref Frames
Format settings, CABAC : Yes
Format settings, Reference frames : 2 frames
Codec ID : V_MPEG4/ISO/AVC
Duration : 1 h 39 min
Bit rate : 5 145 kb/s
Width : 1 920 pixels
Height : 1 080 pixels
Display aspect ratio : 16:9
Frame rate mode : Constant
Frame rate : 23.976 (24000/1001) FPS
Color space : YUV
Chroma subsampling : 4:2:0
Bit depth : 8 bits
Scan type : Progressive
Bits/(Pixel*Frame) : 0.103
Stream size : 3.58 GiB (93%)
Writing library : x264 core 155 r2901 7d0ff22
Language : English
Default : Yes
Forced : No
Color range : Limited
Color primaries : BT.709
Transfer characteristics : BT.709
Matrix coefficients : BT.709

Audio
ID : 2
Format : AC-3
Format/Info : Audio Coding 3
Commercial name : Dolby Digital
Codec ID : A_AC3
Duration : 1 h 39 min
Bit rate mode : Constant
Bit rate : 384 kb/s
Channel(s) : 6 channels
Channel layout : L R C LFE Ls Rs
Sampling rate : 48.0 kHz
Frame rate : 31.250 FPS (1536 SPF)
Bit depth : 16 bits
Compression mode : Lossy
Stream size : 274 MiB (7%)
Language : English
Service kind : Complete Main
Default : Yes
Forced : No

Text
ID : 3
Format : UTF-8
Codec ID : S_TEXT/UTF8
Codec ID/Info : UTF-8 Plain Text
Duration : 1 h 31 min
Bit rate : 24 b/s
Count of elements : 804
Stream size : 16.5 KiB (0%)
Language : English
Default : Yes
Forced : No


磁力链接:

magnet:?xt=urn:btih:ae27a16c34697300a4b5a2237b180aa1b2901205&dn=The.Call.of.the.Wild.2020.1080p.WEBRip.DD5.1.x264-CM&tr=http%3A%2F%2Ftracker.trackerfix.com%3A80%2Fannounce&tr=udp%3A%2F%2F9.rarbg.me%3A2960&tr=udp%3A%2F%2F9.rarbg.to%3A2850

上传的附件:

BT种子 - BT电影下载- 版权声明 1、本主题所有言论和图片纯属会员个人意见,与BT种子立场无关。
2、BT种子管理员和版主有权不事先通知发贴者而删除本文。
3、如本帖侵犯到任何版权问题,请立即告知本站,本站将及时予以删除BT种子和磁力链接并致以最深的歉意。

最新回复 (0)
返回
发新帖