星球大战9.2019.1080p.BluRay.REMUX.AVC.DTS-HD.MA.TrueHD.7.1.Atmos-FGT 45.84 GB 英语简繁中字 2019 欧美 动作 科幻 1080p

BT种子 4天前 89


星球大战9海报

导演: J·J·艾布拉姆斯

编剧: J·J·艾布拉姆斯 / 克里斯·特里奥 / 乔治·卢卡斯 / 科林·特雷沃罗 / 德里克·康纳利

主演: 黛西·雷德利 / 亚当·德赖弗 / 奥斯卡·伊萨克 / 约翰·博耶加 / 马克·哈米尔 / 凯丽·费雪 / 比利·迪·威廉姆斯 / 伊恩·麦克迪阿梅德 / 凯丽·拉塞尔 / 哈里森·福特 / 朱迪·科默 / 比利·豪尔 / 马特·史密斯 / 露皮塔·尼永奥 / 多姆纳尔·格里森 / 凯莉·玛丽·陈 / 乔纳斯·索塔莫 / 比莉·洛德 / 安东尼·丹尼尔斯 / 娜奥米·阿基 / 理查德·E·格兰特 / 多米尼克·莫纳汉 / 格雷戈·格伦伯格 / 艾德·希兰 / 林-曼努尔·米兰达

类型: 动作 / 科幻 / 冒险

制片国家/地区: 美国

语言: 英语

上映日期: 2019-12-18(中国大陆) / 2019-12-20(美国)

片长: 142分钟

又名: 星球大战9 / 星战9 / Star Wars: Episode IX / Star Wars 9

IMDb链接: tt2527338


星球大战9:天行者崛起的剧情简介 · · · · · ·

  本片为2017年电影《星球大战:最后的绝地武士》的续集,“星球大战后传三部曲”的第三部作品,同时是“天行者传奇”的第九部作品以及最终章。在卢克·天行者化为绝地英灵的一年后,残存的抵抗势力将再次面对第一秩序。同时,绝地和西斯之间的大战将天行者的传奇带到最后。


星球大战9:天行者崛起 Star Wars: The Rise of Skywalker 获奖情况

第92届奥斯卡金像奖  (2020)

最佳视觉效果(提名) 尼尔·斯坎伦 / 帕特里克·图巴赫 / 罗杰·盖耶特 / 多米尼克·多伊

最佳音效剪辑(提名)

最佳原创配乐(提名) 约翰·威廉姆斯

第73届英国电影学院奖  (2020)

电影奖 最佳特殊视觉效果(提名)

电影奖 最佳原创配乐(提名) 约翰·威廉姆斯

电影奖 最佳音效(提名)

第24届美国艺术指导工会奖  (2020)

电影奖 最佳幻想电影艺术指导(提名) 凯文·詹金斯 / 瑞克·卡特

第22届美国服装设计工会奖  (2020)

科幻/奇幻题材电影最佳服装设计(提名) 迈克尔·卡普兰

第67届美国音效剪辑协会奖  (2020)

金卷轴奖 最佳电影音效剪辑(提名)

第18届美国视觉效果协会奖  (2020)

最佳特效电影视觉效果(提名)

最佳真人电影CG背景(提名)

最佳真人电影模拟动画效果

最佳电影视觉效果合成(提名)


星球大战9截图1

星球大战9截图2

星球大战9截图3

Video
ID : 1
Format : AVC
Format/Info : Advanced Video Codec
Format profile : High@L4.1
Format settings : CABAC / 4 Ref Frames
Format settings, CABAC : Yes
Format settings, Reference frames : 4 frames
Format settings, GOP : M=3, N=12
Codec ID : V_MPEG4/ISO/AVC
Duration : 2 h 21 min
Bit rate mode : Variable
Bit rate : 33.3 Mb/s
Maximum bit rate : 37.2 Mb/s
Width : 1 920 pixels
Height : 1 080 pixels
Display aspect ratio : 16:9
Frame rate mode : Constant
Frame rate : 23.976 (24000/1001) FPS
Color space : YUV
Chroma subsampling : 4:2:0
Bit depth : 8 bits
Scan type : Progressive
Bits/(Pixel*Frame) : 0.670
Stream size : 33.0 GiB (72%)
Title : Star.Wars.Episode.IX.The.Rise.of.Skywalker.2019.1080p.BluRay.REMUX.AVC.DTS-HD.MA.TrueHD.7.1.Atmos-FGT
Language : English
Default : No
Forced : No

Audio #1
ID : 2
Format : MLP FBA 16-ch
Format/Info : Meridian Lossless Packing FBA with 16-channel presentation
Commercial name : Dolby TrueHD with Dolby Atmos
Codec ID : A_TRUEHD
Duration : 2 h 21 min
Bit rate mode : Variable
Bit rate : 5 890 kb/s
Maximum bit rate : 7 494 kb/s
Channel(s) : 8 channels
Channel layout : L R C LFE Ls Rs Lb Rb
Sampling rate : 48.0 kHz
Frame rate : 1 200.000 FPS (40 SPF)
Compression mode : Lossless
Stream size : 5.84 GiB (13%)
Title : Star.Wars.Episode.IX.The.Rise.of.Skywalker.2019.1080p.BluRay.REMUX.AVC.DTS-HD.MA.TrueHD.7.1.Atmos-FGT
Language : English
Default : Yes
Forced : No
Number of dynamic objects : 13
Bed channel count : 1 channel
Bed channel configuration : LFE

Audio #2
ID : 3
Format : DTS XLL
Format/Info : Digital Theater Systems
Commercial name : DTS-HD Master Audio
Codec ID : A_DTS
Duration : 2 h 21 min
Bit rate mode : Variable
Bit rate : 4 997 kb/s
Channel(s) : 8 channels
Channel layout : C L R LFE Lb Rb Lss Rss
Sampling rate : 48.0 kHz
Frame rate : 93.750 FPS (512 SPF)
Bit depth : 24 bits
Compression mode : Lossless
Stream size : 4.95 GiB (11%)
Title : Star.Wars.Episode.IX.The.Rise.of.Skywalker.2019.1080p.BluRay.REMUX.AVC.DTS-HD.MA.TrueHD.7.1.Atmos-FGT
Language : English
Default : No
Forced : No

Audio #3
ID : 4
Format : AC-3
Format/Info : Audio Coding 3
Commercial name : Dolby Digital
Codec ID : A_AC3
Duration : 2 h 21 min
Bit rate mode : Constant
Bit rate : 640 kb/s
Channel(s) : 6 channels
Channel layout : L R C LFE Ls Rs
Sampling rate : 48.0 kHz
Frame rate : 31.250 FPS (1536 SPF)
Bit depth : 16 bits
Compression mode : Lossy
Stream size : 650 MiB (1%)
Title : Star.Wars.Episode.IX.The.Rise.of.Skywalker.2019.1080p.BluRay.REMUX.AVC.DTS-HD.MA.TrueHD.7.1.Atmos-FGT
Language : English
Service kind : Complete Main
Default : No
Forced : No

Audio #4
ID : 5
Format : AC-3
Format/Info : Audio Coding 3
Commercial name : Dolby Digital
Codec ID : A_AC3
Duration : 2 h 21 min
Bit rate mode : Constant
Bit rate : 640 kb/s
Channel(s) : 6 channels
Channel layout : L R C LFE Ls Rs
Sampling rate : 48.0 kHz
Frame rate : 31.250 FPS (1536 SPF)
Bit depth : 16 bits
Compression mode : Lossy
Stream size : 649 MiB (1%)
Title : Star.Wars.Episode.IX.The.Rise.of.Skywalker.2019.1080p.BluRay.REMUX.AVC.DTS-HD.MA.TrueHD.7.1.Atmos-FGT
Language : Korean
Service kind : Complete Main
Default : No
Forced : No

Audio #5
ID : 6
Format : AC-3
Format/Info : Audio Coding 3
Commercial name : Dolby Digital
Codec ID : A_AC3
Duration : 2 h 21 min
Bit rate mode : Constant
Bit rate : 640 kb/s
Channel(s) : 6 channels
Channel layout : L R C LFE Ls Rs
Sampling rate : 48.0 kHz
Frame rate : 31.250 FPS (1536 SPF)
Bit depth : 16 bits
Compression mode : Lossy
Stream size : 649 MiB (1%)
Title : Star.Wars.Episode.IX.The.Rise.of.Skywalker.2019.1080p.BluRay.REMUX.AVC.DTS-HD.MA.TrueHD.7.1.Atmos-FGT
Language : Portuguese
Service kind : Complete Main
Default : No
Forced : No

Text #1
ID : 7
Format : UTF-8
Codec ID : S_TEXT/UTF8
Codec ID/Info : UTF-8 Plain Text
Duration : 2 h 8 min
Bit rate : 42 b/s
Count of elements : 1531
Stream size : 39.8 KiB (0%)
Title : English-SRT
Language : English
Default : Yes
Forced : No

Text #2
ID : 8
Format : PGS
Muxing mode : zlib
Codec ID : S_HDMV/PGS
Codec ID/Info : Picture based subtitle format used on BDs/HD-DVDs
Duration : 2 h 12 min
Bit rate : 27.4 kb/s
Count of elements : 2901
Stream size : 25.9 MiB (0%)
Title : English-PGS
Language : English
Default : No
Forced : No

Text #3
ID : 9
Format : PGS
Muxing mode : zlib
Codec ID : S_HDMV/PGS
Codec ID/Info : Picture based subtitle format used on BDs/HD-DVDs
Duration : 2 h 11 min
Bit rate : 16.3 kb/s
Count of elements : 2890
Stream size : 15.4 MiB (0%)
Title : Korean-PGS
Language : Korean
Default : No
Forced : No

Text #4
ID : 10
Format : PGS
Muxing mode : zlib
Codec ID : S_HDMV/PGS
Codec ID/Info : Picture based subtitle format used on BDs/HD-DVDs
Duration : 2 h 21 min
Bit rate : 26.4 kb/s
Count of elements : 2888
Stream size : 26.7 MiB (0%)
Title : Portuguese-PGS
Language : Portuguese
Default : No
Forced : No

Text #5
ID : 11
Format : PGS
Muxing mode : zlib
Codec ID : S_HDMV/PGS
Codec ID/Info : Picture based subtitle format used on BDs/HD-DVDs
Duration : 2 h 21 min
Bit rate : 16.8 kb/s
Count of elements : 2890
Stream size : 17.0 MiB (0%)
Title : Chinese-PGS
Language : Chinese
Default : No
Forced : No

Text #6
ID : 12
Format : PGS
Muxing mode : zlib
Codec ID : S_HDMV/PGS
Codec ID/Info : Picture based subtitle format used on BDs/HD-DVDs
Duration : 2 h 21 min
Bit rate : 18.6 kb/s
Count of elements : 2888
Stream size : 18.8 MiB (0%)
Title : Chinese-PGS
Language : Chinese
Default : No
Forced : No

Text #7
ID : 13
Format : PGS
Muxing mode : zlib
Codec ID : S_HDMV/PGS
Codec ID/Info : Picture based subtitle format used on BDs/HD-DVDs
Duration : 1 h 37 min
Bit rate : 24 b/s
Count of elements : 4
Stream size : 17.7 KiB (0%)
Title : English-FORCED-PGS
Language : English
Default : No
Forced : No

Text #8
ID : 14
Format : PGS
Muxing mode : zlib
Codec ID : S_HDMV/PGS
Codec ID/Info : Picture based subtitle format used on BDs/HD-DVDs
Duration : 1 h 37 min
Bit rate : 16 b/s
Count of elements : 4
Stream size : 11.5 KiB (0%)
Title : Korean-FORCED-PGS
Language : Korean
Default : No
Forced : No

Text #9
ID : 15
Format : PGS
Muxing mode : zlib
Codec ID : S_HDMV/PGS
Codec ID/Info : Picture based subtitle format used on BDs/HD-DVDs
Duration : 1 h 37 min
Bit rate : 24 b/s
Count of elements : 4
Stream size : 17.1 KiB (0%)
Title : Portuguese-FORCED-PGS
Language : Portuguese
Default : No
Forced : No

Menu
00:00:00.000 : en:Chapter 01
00:00:09.092 : en:Chapter 02
00:01:41.017 : en:Chapter 03
00:03:47.810 : en:Chapter 04
00:06:42.944 : en:Chapter 05
00:08:26.714 : en:Chapter 06
00:10:04.770 : en:Chapter 07
00:12:48.142 : en:Chapter 08
00:13:53.999 : en:Chapter 09
00:15:17.416 : en:Chapter 10
00:17:13.157 : en:Chapter 11
00:19:25.497 : en:Chapter 12
00:21:28.578 : en:Chapter 13
00:25:27.692 : en:Chapter 14
00:27:14.883 : en:Chapter 15
00:30:41.548 : en:Chapter 16
00:35:49.063 : en:Chapter 17
00:41:37.661 : en:Chapter 18
00:43:15.259 : en:Chapter 19
00:45:28.350 : en:Chapter 20
00:48:24.276 : en:Chapter 21
00:54:37.565 : en:Chapter 22
00:58:49.192 : en:Chapter 23
01:02:54.771 : en:Chapter 24
01:06:22.979 : en:Chapter 25
01:09:54.607 : en:Chapter 26
01:13:07.383 : en:Chapter 27
01:18:23.615 : en:Chapter 28
01:23:41.224 : en:Chapter 29
01:27:02.550 : en:Chapter 30
01:30:23.126 : en:Chapter 31
01:35:00.820 : en:Chapter 32
01:38:47.880 : en:Chapter 33
01:40:36.280 : en:Chapter 34
01:43:03.135 : en:Chapter 35
01:45:27.863 : en:Chapter 36
01:48:48.480 : en:Chapter 37
01:53:27.634 : en:Chapter 38
01:55:30.757 : en:Chapter 39
01:59:02.760 : en:Chapter 40
02:01:37.748 : en:Chapter 41
02:05:20.429 : en:Chapter 42
02:09:43.233 : en:Chapter 43
02:12:25.979 : en:Chapter 44


磁力链接:

magnet:?xt=urn:btih:c16133a529773fe088bb9e500d5ac0dda24c07d7&dn=Star.Wars.Episode.IX.The.Rise.of.Skywalker.2019.1080p.BluRay.REMUX.AVC.DTS-HD.MA.TrueHD.7.1.Atmos-FGT&tr=http%3A%2F%2Ftracker.trackerfix.com%3A80%2Fannounce&tr=udp%3A%2F%2F9.rarbg.me%3A2910&tr=udp%3A%2F%2F9.rarbg.to%3A2750

上传的附件:

BT种子 - BT电影下载- 版权声明 1、本主题所有言论和图片纯属会员个人意见,与BT种子立场无关。
2、BT种子管理员和版主有权不事先通知发贴者而删除本文。
3、如本帖侵犯到任何版权问题,请立即告知本站,本站将及时予以删除BT种子和磁力链接并致以最深的歉意。

最新回复 (0)
返回
发新帖