星球大战9.2019.2160p.BluRay.x264.8bit.SDR.DTS-HD.MA.TrueHD.7.1.Atmos 70.55 GB 英语简繁中字 2019 欧美 动作 科幻 x264

BT种子 4天前 73


星球大战9电影海报

导演: J·J·艾布拉姆斯

编剧: J·J·艾布拉姆斯 / 克里斯·特里奥 / 乔治·卢卡斯 / 科林·特雷沃罗 / 德里克·康纳利

主演: 黛西·雷德利 / 亚当·德赖弗 / 奥斯卡·伊萨克 / 约翰·博耶加 / 马克·哈米尔 / 凯丽·费雪 / 比利·迪·威廉姆斯 / 伊恩·麦克迪阿梅德 / 凯丽·拉塞尔 / 哈里森·福特 / 朱迪·科默 / 比利·豪尔 / 马特·史密斯 / 露皮塔·尼永奥 / 多姆纳尔·格里森 / 凯莉·玛丽·陈 / 乔纳斯·索塔莫 / 比莉·洛德 / 安东尼·丹尼尔斯 / 娜奥米·阿基 / 理查德·E·格兰特 / 多米尼克·莫纳汉 / 格雷戈·格伦伯格 / 艾德·希兰 / 林-曼努尔·米兰达

类型: 动作 / 科幻 / 冒险

制片国家/地区: 美国

语言: 英语

上映日期: 2019-12-18(中国大陆) / 2019-12-20(美国)

片长: 142分钟

又名: 星球大战9 / 星战9 / Star Wars: Episode IX / Star Wars 9

IMDb链接: tt2527338


星球大战9:天行者崛起的剧情简介 · · · · · ·

  本片为2017年电影《星球大战:最后的绝地武士》的续集,“星球大战后传三部曲”的第三部作品,同时是“天行者传奇”的第九部作品以及最终章。在卢克·天行者化为绝地英灵的一年后,残存的抵抗势力将再次面对第一秩序。同时,绝地和西斯之间的大战将天行者的传奇带到最后。


星球大战9:天行者崛起 Star Wars: The Rise of Skywalker 获奖情况

第92届奥斯卡金像奖  (2020)

最佳视觉效果(提名) 尼尔·斯坎伦 / 帕特里克·图巴赫 / 罗杰·盖耶特 / 多米尼克·多伊

最佳音效剪辑(提名)

最佳原创配乐(提名) 约翰·威廉姆斯

第73届英国电影学院奖  (2020)

电影奖 最佳特殊视觉效果(提名)

电影奖 最佳原创配乐(提名) 约翰·威廉姆斯

电影奖 最佳音效(提名)

第24届美国艺术指导工会奖  (2020)

电影奖 最佳幻想电影艺术指导(提名) 凯文·詹金斯 / 瑞克·卡特

第22届美国服装设计工会奖  (2020)

科幻/奇幻题材电影最佳服装设计(提名) 迈克尔·卡普兰

第67届美国音效剪辑协会奖  (2020)

金卷轴奖 最佳电影音效剪辑(提名)

第18届美国视觉效果协会奖  (2020)

最佳特效电影视觉效果(提名)

最佳真人电影CG背景(提名)

最佳真人电影模拟动画效果

最佳电影视觉效果合成(提名)


星球大战9电影截图:

星球大战9电影截图1

星球大战9电影截图2

星球大战9电影截图3

Video
ID : 1
Format : AVC
Format/Info : Advanced Video Codec
Format profile : High@L5.1
Format settings : CABAC / 5 Ref Frames
Format settings, CABAC : Yes
Format settings, Reference frames : 5 frames
Codec ID : V_MPEG4/ISO/AVC
Duration : 2 h 21 min
Bit rate : 59.9 Mb/s
Width : 3 840 pixels
Height : 1 608 pixels
Display aspect ratio : 2.40:1
Frame rate mode : Constant
Frame rate : 23.976 (24000/1001) FPS
Color space : YUV
Chroma subsampling : 4:2:0
Bit depth : 8 bits
Scan type : Progressive
Bits/(Pixel*Frame) : 0.404
Stream size : 59.3 GiB (84%)
Title : Star.Wars.Episode.IX.The.Rise.of.Skywalker.2019.2160p.BluRay.x264.8bit.SDR.DTS-HD.MA.TrueHD.7.1.Atmos-SWTYBLZ
Writing library : x264 core 157 r2935 545de2f
Encoding settings : cabac=1 / ref=5 / deblock=1:-1:-1 / analyse=0x3:0x113 / me=umh / subme=10 / psy=1 / psy_rd=1.00:0.15 / mixed_ref=1 / me_range=48 / chroma_me=1 / trellis=2 / 8x8dct=1 / cqm=0 / deadzone=21,11 / fast_pskip=1 / chroma_qp_offset=-3 / threads=36 / lookahead_threads=3 / sliced_threads=0 / nr=0 / decimate=0 / interlaced=0 / bluray_compat=0 / constrained_intra=0 / bframes=3 / b_pyramid=2 / b_adapt=2 / b_bias=0 / direct=3 / weightb=1 / open_gop=0 / weightp=2 / keyint=250 / keyint_min=23 / scenecut=40 / intra_refresh=0 / rc_lookahead=50 / rc=crf / mbtree=1 / crf=18.0 / qcomp=0.60 / qpmin=0 / qpmax=69 / qpstep=4 / ip_ratio=1.40 / aq=1:1.00
Default : Yes
Forced : No

Audio #1
ID : 2
Format : MLP FBA 16-ch
Format/Info : Meridian Lossless Packing FBA with 16-channel presentation
Commercial name : Dolby TrueHD with Dolby Atmos
Codec ID : A_TRUEHD
Duration : 2 h 21 min
Bit rate mode : Variable
Bit rate : 5 890 kb/s
Maximum bit rate : 7 494 kb/s
Channel(s) : 8 channels
Channel layout : L R C LFE Ls Rs Lb Rb
Sampling rate : 48.0 kHz
Frame rate : 1 200.000 FPS (40 SPF)
Compression mode : Lossless
Stream size : 5.84 GiB (8%)
Title : Star.Wars.Episode.IX.The.Rise.of.Skywalker.2019.2160p.BluRay.x264.8bit.SDR.DTS-HD.MA.TrueHD.7.1.Atmos-SWTYBLZ
Language : English
Default : Yes
Forced : No
Number of dynamic objects : 13
Bed channel count : 1 channel
Bed channel configuration : LFE

Audio #2
ID : 3
Format : DTS XLL
Format/Info : Digital Theater Systems
Commercial name : DTS-HD Master Audio
Codec ID : A_DTS
Duration : 2 h 21 min
Bit rate mode : Variable
Bit rate : 4 321 kb/s
Channel(s) : 8 channels
Channel layout : C L R LFE Lb Rb Lss Rss
Sampling rate : 48.0 kHz
Frame rate : 93.750 FPS (512 SPF)
Bit depth : 24 bits
Compression mode : Lossless
Stream size : 4.28 GiB (6%)
Title : Star.Wars.Episode.IX.The.Rise.of.Skywalker.2019.2160p.BluRay.x264.8bit.SDR.DTS-HD.MA.TrueHD.7.1.Atmos-SWTYBLZ
Language : English
Default : No
Forced : No

Audio #3
ID : 4
Format : AC-3
Format/Info : Audio Coding 3
Commercial name : Dolby Digital
Codec ID : A_AC3
Duration : 2 h 21 min
Bit rate mode : Constant
Bit rate : 640 kb/s
Channel(s) : 6 channels
Channel layout : L R C LFE Ls Rs
Sampling rate : 48.0 kHz
Frame rate : 31.250 FPS (1536 SPF)
Bit depth : 16 bits
Compression mode : Lossy
Stream size : 650 MiB (1%)
Title : Star.Wars.Episode.IX.The.Rise.of.Skywalker.2019.2160p.BluRay.x264.8bit.SDR.DTS-HD.MA.TrueHD.7.1.Atmos-SWTYBLZ
Language : English
Service kind : Complete Main
Default : No
Forced : No

Text #1
ID : 5
Format : UTF-8
Codec ID : S_TEXT/UTF8
Codec ID/Info : UTF-8 Plain Text
Duration : 2 h 8 min
Bit rate : 42 b/s
Count of elements : 1531
Stream size : 39.8 KiB (0%)
Title : English-SRT
Language : English
Default : Yes
Forced : No

Text #2
ID : 6
Format : PGS
Muxing mode : zlib
Codec ID : S_HDMV/PGS
Codec ID/Info : Picture based subtitle format used on BDs/HD-DVDs
Duration : 1 s 627 ms
Bit rate : 81.1 kb/s
Count of elements : 2
Stream size : 16.1 KiB (0%)
Title : English-FORCED-PGS
Language : English
Default : No
Forced : No

Text #3
ID : 7
Format : PGS
Muxing mode : zlib
Codec ID : S_HDMV/PGS
Codec ID/Info : Picture based subtitle format used on BDs/HD-DVDs
Duration : 2 h 8 min
Bit rate : 25.6 kb/s
Count of elements : 2894
Stream size : 23.5 MiB (0%)
Title : English-PGS
Language : English
Default : No
Forced : No

Text #4
ID : 8
Format : PGS
Muxing mode : zlib
Codec ID : S_HDMV/PGS
Codec ID/Info : Picture based subtitle format used on BDs/HD-DVDs
Duration : 2 h 11 min
Bit rate : 33.9 kb/s
Count of elements : 3786
Stream size : 32.0 MiB (0%)
Title : English-SDH-PGS
Language : English
Default : No
Forced : No

Text #5
ID : 9
Format : PGS
Muxing mode : zlib
Codec ID : S_HDMV/PGS
Codec ID/Info : Picture based subtitle format used on BDs/HD-DVDs
Duration : 2 h 21 min
Bit rate : 14.9 kb/s
Count of elements : 2884
Stream size : 15.0 MiB (0%)
Title : Chinese-PGS
Language : Chinese
Default : No
Forced : No

Text #6
ID : 10
Format : PGS
Muxing mode : zlib
Codec ID : S_HDMV/PGS
Codec ID/Info : Picture based subtitle format used on BDs/HD-DVDs
Duration : 2 h 21 min
Bit rate : 16.4 kb/s
Count of elements : 2884
Stream size : 16.6 MiB (0%)
Title : Chinese-PGS
Language : Chinese
Default : No
Forced : No

Text #7
ID : 11
Format : PGS
Muxing mode : zlib
Codec ID : S_HDMV/PGS
Codec ID/Info : Picture based subtitle format used on BDs/HD-DVDs
Duration : 2 h 21 min
Bit rate : 20.5 kb/s
Count of elements : 2022
Stream size : 20.7 MiB (0%)
Title : Danish-PGS
Language : Danish
Default : No
Forced : No

Text #8
ID : 12
Format : PGS
Muxing mode : zlib
Codec ID : S_HDMV/PGS
Codec ID/Info : Picture based subtitle format used on BDs/HD-DVDs
Duration : 2 h 21 min
Bit rate : 23.8 kb/s
Count of elements : 2886
Stream size : 24.1 MiB (0%)
Title : Finnish-PGS
Language : Finnish
Default : No
Forced : No

Text #9
ID : 13
Format : PGS
Muxing mode : zlib
Codec ID : S_HDMV/PGS
Codec ID/Info : Picture based subtitle format used on BDs/HD-DVDs
Duration : 2 h 21 min
Bit rate : 25.1 kb/s
Count of elements : 2940
Stream size : 25.3 MiB (0%)
Title : French-PGS
Language : French
Default : No
Forced : No

Text #10
ID : 14
Format : PGS
Muxing mode : zlib
Codec ID : S_HDMV/PGS
Codec ID/Info : Picture based subtitle format used on BDs/HD-DVDs
Duration : 2 h 11 min
Bit rate : 16.2 kb/s
Count of elements : 2890
Stream size : 15.3 MiB (0%)
Title : Korean-PGS
Language : Korean
Default : No
Forced : No

Text #11
ID : 15
Format : PGS
Muxing mode : zlib
Codec ID : S_HDMV/PGS
Codec ID/Info : Picture based subtitle format used on BDs/HD-DVDs
Duration : 2 h 21 min
Bit rate : 22.0 kb/s
Count of elements : 2882
Stream size : 22.2 MiB (0%)
Title : Norwegian-PGS
Language : Norwegian
Default : No
Forced : No

Text #12
ID : 16
Format : PGS
Muxing mode : zlib
Codec ID : S_HDMV/PGS
Codec ID/Info : Picture based subtitle format used on BDs/HD-DVDs
Duration : 2 h 21 min
Bit rate : 23.9 kb/s
Count of elements : 2884
Stream size : 24.2 MiB (0%)
Title : Portuguese-PGS
Language : Portuguese
Default : No
Forced : No

Text #13
ID : 17
Format : PGS
Muxing mode : zlib
Codec ID : S_HDMV/PGS
Codec ID/Info : Picture based subtitle format used on BDs/HD-DVDs
Duration : 2 h 11 min
Bit rate : 25.6 kb/s
Count of elements : 2896
Stream size : 24.2 MiB (0%)
Title : Spanish-PGS
Language : Spanish
Default : No
Forced : No

Text #14
ID : 18
Format : PGS
Muxing mode : zlib
Codec ID : S_HDMV/PGS
Codec ID/Info : Picture based subtitle format used on BDs/HD-DVDs
Duration : 2 h 21 min
Bit rate : 21.3 kb/s
Count of elements : 2340
Stream size : 21.5 MiB (0%)
Title : Swedish-PGS
Language : Swedish
Default : No
Forced : No

Menu
00:00:00.000 : en:Chapter 01
00:00:09.426 : en:Chapter 02
00:01:41.309 : en:Chapter 03
00:03:47.810 : en:Chapter 04
00:06:42.902 : en:Chapter 05
00:08:26.464 : en:Chapter 06
00:10:05.354 : en:Chapter 07
00:12:47.767 : en:Chapter 08
00:13:53.999 : en:Chapter 09
00:15:17.166 : en:Chapter 10
00:17:13.157 : en:Chapter 11
00:19:24.997 : en:Chapter 12
00:21:28.245 : en:Chapter 13
00:25:27.692 : en:Chapter 14
00:27:14.883 : en:Chapter 15
00:30:41.548 : en:Chapter 16
00:35:48.729 : en:Chapter 17
00:41:38.078 : en:Chapter 18
00:43:15.134 : en:Chapter 19
00:45:28.350 : en:Chapter 20
00:48:24.484 : en:Chapter 21
00:54:37.399 : en:Chapter 22
00:58:48.816 : en:Chapter 23
01:02:54.395 : en:Chapter 24
01:06:22.770 : en:Chapter 25
01:09:54.607 : en:Chapter 26
01:13:07.383 : en:Chapter 27
01:18:23.615 : en:Chapter 28
01:23:41.224 : en:Chapter 29
01:27:02.759 : en:Chapter 30
01:30:23.126 : en:Chapter 31
01:35:00.778 : en:Chapter 32
01:38:47.880 : en:Chapter 33
01:40:35.487 : en:Chapter 34
01:43:02.885 : en:Chapter 35
01:45:27.612 : en:Chapter 36
01:48:48.021 : en:Chapter 37
01:53:27.634 : en:Chapter 38
01:55:30.757 : en:Chapter 39
01:59:02.969 : en:Chapter 40
02:01:37.748 : en:Chapter 41
02:05:20.137 : en:Chapter 42
02:09:42.858 : en:Chapter 43
02:12:25.562 : en:Chapter 44


磁力链接:

magnet:?xt=urn:btih:d71d0b173b83c40d7c2f99f6fcc7f3ae3f552348&dn=Star.Wars.Episode.IX.The.Rise.of.Skywalker.2019.2160p.BluRay.x264.8bit.SDR.DTS-HD.MA.TrueHD.7.1.Atmos-SWTYBLZ&tr=http%3A%2F%2Ftracker.trackerfix.com%3A80%2Fannounce&tr=udp%3A%2F%2F9.rarbg.me%3A2730&tr=udp%3A%2F%2F9.rarbg.to%3A2870

上传的附件:

BT种子 - BT电影下载- 版权声明 1、本主题所有言论和图片纯属会员个人意见,与BT种子立场无关。
2、BT种子管理员和版主有权不事先通知发贴者而删除本文。
3、如本帖侵犯到任何版权问题,请立即告知本站,本站将及时予以删除BT种子和磁力链接并致以最深的歉意。

最新回复 (0)
返回
发新帖