星球大战9.2019.2160p.BluRay.x265.10bit.SDR.DTS-HD.MA.TrueHD.7.1.Atmos 59.60 GB 英语简繁中字 2019 欧美 动作 科幻 x265

BT种子 4天前 68


星球大战9电影海报

导演: J·J·艾布拉姆斯

编剧: J·J·艾布拉姆斯 / 克里斯·特里奥 / 乔治·卢卡斯 / 科林·特雷沃罗 / 德里克·康纳利

主演: 黛西·雷德利 / 亚当·德赖弗 / 奥斯卡·伊萨克 / 约翰·博耶加 / 马克·哈米尔 / 凯丽·费雪 / 比利·迪·威廉姆斯 / 伊恩·麦克迪阿梅德 / 凯丽·拉塞尔 / 哈里森·福特 / 朱迪·科默 / 比利·豪尔 / 马特·史密斯 / 露皮塔·尼永奥 / 多姆纳尔·格里森 / 凯莉·玛丽·陈 / 乔纳斯·索塔莫 / 比莉·洛德 / 安东尼·丹尼尔斯 / 娜奥米·阿基 / 理查德·E·格兰特 / 多米尼克·莫纳汉 / 格雷戈·格伦伯格 / 艾德·希兰 / 林-曼努尔·米兰达

类型: 动作 / 科幻 / 冒险

制片国家/地区: 美国

语言: 英语

上映日期: 2019-12-18(中国大陆) / 2019-12-20(美国)

片长: 142分钟

又名: 星球大战9 / 星战9 / Star Wars: Episode IX / Star Wars 9

IMDb链接: tt2527338


星球大战9:天行者崛起的剧情简介 · · · · · ·

  本片为2017年电影《星球大战:最后的绝地武士》的续集,“星球大战后传三部曲”的第三部作品,同时是“天行者传奇”的第九部作品以及最终章。在卢克·天行者化为绝地英灵的一年后,残存的抵抗势力将再次面对第一秩序。同时,绝地和西斯之间的大战将天行者的传奇带到最后。


星球大战9:天行者崛起 Star Wars: The Rise of Skywalker 获奖情况

第92届奥斯卡金像奖  (2020)

最佳视觉效果(提名) 尼尔·斯坎伦 / 帕特里克·图巴赫 / 罗杰·盖耶特 / 多米尼克·多伊

最佳音效剪辑(提名)

最佳原创配乐(提名) 约翰·威廉姆斯

第73届英国电影学院奖  (2020)

电影奖 最佳特殊视觉效果(提名)

电影奖 最佳原创配乐(提名) 约翰·威廉姆斯

电影奖 最佳音效(提名)

第24届美国艺术指导工会奖  (2020)

电影奖 最佳幻想电影艺术指导(提名) 凯文·詹金斯 / 瑞克·卡特

第22届美国服装设计工会奖  (2020)

科幻/奇幻题材电影最佳服装设计(提名) 迈克尔·卡普兰

第67届美国音效剪辑协会奖  (2020)

金卷轴奖 最佳电影音效剪辑(提名)

第18届美国视觉效果协会奖  (2020)

最佳特效电影视觉效果(提名)

最佳真人电影CG背景(提名)

最佳真人电影模拟动画效果

最佳电影视觉效果合成(提名)


星球大战9电影截图:

星球大战9电影截图1

星球大战9电影截图2

星球大战9电影截图3

Video
ID : 1
Format : HEVC
Format/Info : High Efficiency Video Coding
Format profile : Main 10@L5.1@High
Codec ID : V_MPEGH/ISO/HEVC
Duration : 2 h 21 min
Bit rate : 48.9 Mb/s
Width : 3 840 pixels
Height : 1 608 pixels
Display aspect ratio : 2.40:1
Frame rate mode : Constant
Frame rate : 23.976 (24000/1001) FPS
Color space : YUV
Chroma subsampling : 4:2:0
Bit depth : 10 bits
Bits/(Pixel*Frame) : 0.330
Stream size : 48.5 GiB (82%)
Title : Star.Wars.Episode.IX.The.Rise.of.Skywalker.2019.2160p.BluRay.x265.10bit.SDR.DTS-HD.MA.TrueHD.7.1.Atmos-SWTYBLZ
Writing library : x265 3.0+1-ed72af837053:[Windows][GCC 8.2.0][64 bit] 10bit
Encoding settings : cpuid=1111039 / frame-threads=6 / numa-pools=40 / wpp / no-pmode / no-pme / no-psnr / no-ssim / log-level=2 / input-csp=1 / input-res=3840x1608 / interlace=0 / total-frames=204114 / level-idc=51 / high-tier=1 / uhd-bd=0 / ref=3 / no-allow-non-conformance / repeat-headers / annexb / aud / hrd / info / hash=0 / no-temporal-layers / no-open-gop / min-keyint=1 / keyint=24 / gop-lookahead=0 / bframes=4 / b-adapt=2 / b-pyramid / bframe-bias=0 / rc-lookahead=25 / lookahead-slices=4 / scenecut=40 / radl=0 / no-splice / no-intra-refresh / ctu=64 / min-cu-size=8 / no-rect / no-amp / max-tu-size=32 / tu-inter-depth=1 / tu-intra-depth=1 / limit-tu=0 / rdoq-level=0 / dynamic-rd=0.00 / no-ssim-rd / signhide / no-tskip / nr-intra=0 / nr-inter=0 / no-constrained-intra / strong-intra-smoothing / max-merge=2 / limit-refs=3 / no-limit-modes / me=1 / subme=2 / merange=57 / temporal-mvp / weightp / no-weightb / no-analyze-src-pics / deblock=0:0 / no-sao / no-sao-non-deblock / rd=3 / no-early-skip / rskip / no-fast-intra / no-tskip-fast / no-cu-lossless / no-b-intra / no-splitrd-skip / rdpenalty=0 / psy-rd=2.00 / psy-rdoq=0.00 / no-rd-refine / no-lossless / cbqpoffs=0 / crqpoffs=0 / rc=crf / crf=16.0 / qcomp=0.60 / qpstep=4 / stats-write=0 / stats-read=0 / vbv-maxrate=160000 / vbv-bufsize=160000 / vbv-init=0.9 / crf-max=0.0 / crf-min=0.0 / ipratio=1.40 / pbratio=1.30 / aq-mode=1 / aq-strength=1.00 / cutree / zone-count=0 / no-strict-cbr / qg-size=32 / no-rc-grain / qpmax=69 / qpmin=0 / no-const-vbv / sar=1 / overscan=0 / videoformat=5 / range=0 / colorprim=2 / transfer=2 / colormatrix=2 / chromaloc=0 / display-window=0 / max-cll=0,0 / min-luma=0 / max-luma=1023 / log2-max-poc-lsb=8 / vui-timing-info / vui-hrd-info / slices=1 / opt-qp-pps / opt-ref-list-length-pps / no-multi-pass-opt-rps / scenecut-bias=0.05 / no-opt-cu-delta-qp / no-aq-motion / no-hdr / no-hdr-opt / no-dhdr10-opt / no-idr-recovery-sei / analysis-reuse-level=5 / scale-factor=0 / refine-intra=0 / refine-inter=0 / refine-mv=0 / refine-ctu-distortion=0 / no-limit-sao / ctu-info=0 / no-lowpass-dct / refine-analysis-type=0 / copy-pic=1 / max-ausize-factor=1.0 / no-dynamic-refine / no-single-sei / no-hevc-aq / qp-adaptation-range=1.00
Default : Yes
Forced : No

Audio #1
ID : 2
Format : MLP FBA 16-ch
Format/Info : Meridian Lossless Packing FBA with 16-channel presentation
Commercial name : Dolby TrueHD with Dolby Atmos
Codec ID : A_TRUEHD
Duration : 2 h 21 min
Bit rate mode : Variable
Bit rate : 5 890 kb/s
Maximum bit rate : 7 494 kb/s
Channel(s) : 8 channels
Channel layout : L R C LFE Ls Rs Lb Rb
Sampling rate : 48.0 kHz
Frame rate : 1 200.000 FPS (40 SPF)
Compression mode : Lossless
Stream size : 5.84 GiB (10%)
Title : Star.Wars.Episode.IX.The.Rise.of.Skywalker.2019.2160p.BluRay.x265.10bit.SDR.DTS-HD.MA.TrueHD.7.1.Atmos-SWTYBLZ
Language : English
Default : Yes
Forced : No
Number of dynamic objects : 13
Bed channel count : 1 channel
Bed channel configuration : LFE

Audio #2
ID : 3
Format : DTS XLL
Format/Info : Digital Theater Systems
Commercial name : DTS-HD Master Audio
Codec ID : A_DTS
Duration : 2 h 21 min
Bit rate mode : Variable
Bit rate : 4 321 kb/s
Channel(s) : 8 channels
Channel layout : C L R LFE Lb Rb Lss Rss
Sampling rate : 48.0 kHz
Frame rate : 93.750 FPS (512 SPF)
Bit depth : 24 bits
Compression mode : Lossless
Stream size : 4.28 GiB (7%)
Title : Star.Wars.Episode.IX.The.Rise.of.Skywalker.2019.2160p.BluRay.x265.10bit.SDR.DTS-HD.MA.TrueHD.7.1.Atmos-SWTYBLZ
Language : English
Default : No
Forced : No

Audio #3
ID : 4
Format : AC-3
Format/Info : Audio Coding 3
Commercial name : Dolby Digital
Codec ID : A_AC3
Duration : 2 h 21 min
Bit rate mode : Constant
Bit rate : 640 kb/s
Channel(s) : 6 channels
Channel layout : L R C LFE Ls Rs
Sampling rate : 48.0 kHz
Frame rate : 31.250 FPS (1536 SPF)
Compression mode : Lossy
Stream size : 650 MiB (1%)
Title : Star.Wars.Episode.IX.The.Rise.of.Skywalker.2019.2160p.BluRay.x265.10bit.SDR.DTS-HD.MA.TrueHD.7.1.Atmos-SWTYBLZ
Language : English
Service kind : Complete Main
Default : No
Forced : No

Text #1
ID : 5
Format : UTF-8
Codec ID : S_TEXT/UTF8
Codec ID/Info : UTF-8 Plain Text
Duration : 2 h 8 min
Bit rate : 42 b/s
Count of elements : 1531
Stream size : 39.8 KiB (0%)
Title : English-SRT
Language : English
Default : Yes
Forced : No

Text #2
ID : 6
Format : PGS
Muxing mode : zlib
Codec ID : S_HDMV/PGS
Codec ID/Info : Picture based subtitle format used on BDs/HD-DVDs
Duration : 1 s 627 ms
Bit rate : 81.1 kb/s
Count of elements : 2
Stream size : 16.1 KiB (0%)
Title : English-FORCED-PGS
Language : English
Default : No
Forced : No

Text #3
ID : 7
Format : PGS
Muxing mode : zlib
Codec ID : S_HDMV/PGS
Codec ID/Info : Picture based subtitle format used on BDs/HD-DVDs
Duration : 2 h 8 min
Bit rate : 25.6 kb/s
Count of elements : 2894
Stream size : 23.5 MiB (0%)
Title : English-PGS
Language : English
Default : No
Forced : No

Text #4
ID : 8
Format : PGS
Muxing mode : zlib
Codec ID : S_HDMV/PGS
Codec ID/Info : Picture based subtitle format used on BDs/HD-DVDs
Duration : 2 h 11 min
Bit rate : 33.9 kb/s
Count of elements : 3786
Stream size : 32.0 MiB (0%)
Title : English-SDH-PGS
Language : English
Default : No
Forced : No

Text #5
ID : 9
Format : PGS
Muxing mode : zlib
Codec ID : S_HDMV/PGS
Codec ID/Info : Picture based subtitle format used on BDs/HD-DVDs
Duration : 2 h 21 min
Bit rate : 14.9 kb/s
Count of elements : 2884
Stream size : 15.0 MiB (0%)
Title : Chinese-PGS
Language : Chinese
Default : No
Forced : No

Text #6
ID : 10
Format : PGS
Muxing mode : zlib
Codec ID : S_HDMV/PGS
Codec ID/Info : Picture based subtitle format used on BDs/HD-DVDs
Duration : 2 h 21 min
Bit rate : 16.4 kb/s
Count of elements : 2884
Stream size : 16.6 MiB (0%)
Title : Chinese-PGS
Language : Chinese
Default : No
Forced : No

Text #7
ID : 11
Format : PGS
Muxing mode : zlib
Codec ID : S_HDMV/PGS
Codec ID/Info : Picture based subtitle format used on BDs/HD-DVDs
Duration : 2 h 21 min
Bit rate : 20.5 kb/s
Count of elements : 2022
Stream size : 20.7 MiB (0%)
Title : Danish-PGS
Language : Danish
Default : No
Forced : No

Text #8
ID : 12
Format : PGS
Muxing mode : zlib
Codec ID : S_HDMV/PGS
Codec ID/Info : Picture based subtitle format used on BDs/HD-DVDs
Duration : 2 h 21 min
Bit rate : 23.8 kb/s
Count of elements : 2886
Stream size : 24.1 MiB (0%)
Title : Finnish-PGS
Language : Finnish
Default : No
Forced : No

Text #9
ID : 13
Format : PGS
Muxing mode : zlib
Codec ID : S_HDMV/PGS
Codec ID/Info : Picture based subtitle format used on BDs/HD-DVDs
Duration : 2 h 21 min
Bit rate : 25.1 kb/s
Count of elements : 2940
Stream size : 25.3 MiB (0%)
Title : French-PGS
Language : French
Default : No
Forced : No

Text #10
ID : 14
Format : PGS
Muxing mode : zlib
Codec ID : S_HDMV/PGS
Codec ID/Info : Picture based subtitle format used on BDs/HD-DVDs
Duration : 2 h 11 min
Bit rate : 16.2 kb/s
Count of elements : 2890
Stream size : 15.3 MiB (0%)
Title : Korean-PGS
Language : Korean
Default : No
Forced : No

Text #11
ID : 15
Format : PGS
Muxing mode : zlib
Codec ID : S_HDMV/PGS
Codec ID/Info : Picture based subtitle format used on BDs/HD-DVDs
Duration : 2 h 21 min
Bit rate : 22.0 kb/s
Count of elements : 2882
Stream size : 22.2 MiB (0%)
Title : Norwegian-PGS
Language : Norwegian
Default : No
Forced : No

Text #12
ID : 16
Format : PGS
Muxing mode : zlib
Codec ID : S_HDMV/PGS
Codec ID/Info : Picture based subtitle format used on BDs/HD-DVDs
Duration : 2 h 21 min
Bit rate : 23.9 kb/s
Count of elements : 2884
Stream size : 24.2 MiB (0%)
Title : Portuguese-PGS
Language : Portuguese
Default : No
Forced : No

Text #13
ID : 17
Format : PGS
Muxing mode : zlib
Codec ID : S_HDMV/PGS
Codec ID/Info : Picture based subtitle format used on BDs/HD-DVDs
Duration : 2 h 11 min
Bit rate : 25.6 kb/s
Count of elements : 2896
Stream size : 24.2 MiB (0%)
Title : Spanish-PGS
Language : Spanish
Default : No
Forced : No

Text #14
ID : 18
Format : PGS
Muxing mode : zlib
Codec ID : S_HDMV/PGS
Codec ID/Info : Picture based subtitle format used on BDs/HD-DVDs
Duration : 2 h 21 min
Bit rate : 21.3 kb/s
Count of elements : 2340
Stream size : 21.5 MiB (0%)
Title : Swedish-PGS
Language : Swedish
Default : No
Forced : No

Menu
00:00:00.000 : en:Opening Logo
00:00:09.176 : en:The Rise Of Skywalker
00:01:40.934 : en:Kylo Ren's Quest
00:03:47.811 : en:Exegol
00:06:42.902 : en:Millenium Falcon Mission
00:08:26.673 : en:Pursuit Of The Falcon
00:10:04.896 : en:Rey's Training Course
00:12:48.142 : en:General Leia
00:13:54.000 : en:The Falcon's Back
00:15:17.416 : en:Spy Message
00:17:13.199 : en:"We Go Together"
00:19:25.039 : en:Ren Reforged
00:21:28.579 : en:Pasaana Festival
00:25:27.693 : en:General Calrissian
00:27:14.883 : en:Speeder Chase
00:30:41.548 : en:Buried Secrets
00:35:49.064 : en:Power Unleashed
00:41:37.745 : en:Aftermath
00:43:15.259 : en:"In This Till The End"
00:45:28.351 : en:Meeting Zorii
00:48:24.568 : en:Babu Firk's Workshop
00:54:37.566 : en:Into The Destroyer
00:58:49.192 : en:Revelations
01:02:54.771 : en:Repercussions
01:06:23.104 : en:To Kef Bir
01:09:54.607 : en:Jannah
01:13:07.383 : en:The Emperor's Vault
01:18:23.616 : en:The Duel
01:23:41.225 : en:Remembrance
01:27:02.884 : en:The Final Order Begins
01:30:23.126 : en:The Destiny Of A Jedi
01:35:00.820 : en:Battle Plans
01:38:47.880 : en:Welcome To Exegol
01:40:35.863 : en:Drop Zone
01:43:03.135 : en:Throne Of The Sith
01:45:27.863 : en:Dark Turn
01:48:48.188 : en:Dyad In The Force
01:53:27.634 : en:The Galaxy Responds
01:55:30.757 : en:Emperor Reborn
01:59:02.969 : en:Last Chance
02:01:37.749 : en:Ben
02:05:20.430 : en:Victory
02:09:42.692 : en:Saga's End
02:12:25.896 : en:End Credits


磁力链接:

magnet:?xt=urn:btih:ec3708588641dd132f2ef8e4390420f1a3f1a55d&dn=Star.Wars.Episode.IX.The.Rise.of.Skywalker.2019.2160p.BluRay.x265.10bit.SDR.DTS-HD.MA.TrueHD.7.1.Atmos-SWTYBLZ&tr=http%3A%2F%2Ftracker.trackerfix.com%3A80%2Fannounce&tr=udp%3A%2F%2F9.rarbg.me%3A2880&tr=udp%3A%2F%2F9.rarbg.to%3A2850

上传的附件:

BT种子 - BT电影下载- 版权声明 1、本主题所有言论和图片纯属会员个人意见,与BT种子立场无关。
2、BT种子管理员和版主有权不事先通知发贴者而删除本文。
3、如本帖侵犯到任何版权问题,请立即告知本站,本站将及时予以删除BT种子和磁力链接并致以最深的歉意。

最新回复 (0)
返回
发新帖