点指兵兵.Cops.And.Robbers.1979.CHINESE.1080p.BluRay.x264.DTS-FGT 8.27 GB 更早 华语 犯罪 BluRay

BT种子 5天前 308

点指兵兵电影海报

导演: 章国明

编剧: 章国明 / 陈翘英 / 关维鹏

主演: 王钟 / 许炳安

类型: 剧情 / 犯罪

制片国家/地区: 中国香港

语言: 粤语

上映日期: 1979-11-06

片长: 95分钟

又名: Cops And Robbers

IMDb链接: tt0079048


点指兵兵的剧情简介 · · · · · ·

  一个醉心枪械的年轻人欲投考警察,因有眼疾未被录取,造成心理不平衡而四处杀人。警方成立特别组缉捕他,一个初出茅庐的警察与凶手狭路相逢......


电影截图

点指兵兵1
点指兵兵2
点指兵兵3

Video
ID : 1
Format : AVC
Format/Info : Advanced Video Codec
Format profile : High@L4.1
Format settings : CABAC / 4 Ref Frames
Format settings, CABAC : Yes
Format settings, Reference frames : 4 frames
Codec ID : V_MPEG4/ISO/AVC
Duration : 1 h 31 min
Bit rate : 11.5 Mb/s
Width : 1 920 pixels
Height : 818 pixels
Display aspect ratio : 2.35:1
Frame rate mode : Constant
Frame rate : 25.000 FPS
Color space : YUV
Chroma subsampling : 4:2:0
Bit depth : 8 bits
Scan type : Progressive
Bits/(Pixel*Frame) : 0.293
Stream size : 7.31 GiB (88%)
Title : Cops.And.Robbers.1979.CHINESE.1080p.BluRay.x264.DTS-FGT
Writing library : x264 core 148 r2795M aaa9aa8
Encoding settings : cabac=1 / ref=4 / deblock=1:-2:-2 / analyse=0x3:0x113 / me=umh / subme=9 / psy=1 / psy_rd=1.00:0.15 / mixed_ref=1 / me_range=16 / chroma_me=1 / trellis=2 / 8x8dct=1 / cqm=0 / deadzone=21,11 / fast_pskip=1 / chroma_qp_offset=-3 / threads=24 / lookahead_threads=3 / sliced_threads=0 / nr=0 / decimate=1 / interlaced=0 / bluray_compat=0 / constrained_intra=0 / bframes=3 / b_pyramid=2 / b_adapt=1 / b_bias=0 / direct=3 / weightb=1 / open_gop=0 / weightp=2 / keyint=250 / keyint_min=25 / scenecut=40 / intra_refresh=0 / rc_lookahead=50 / rc=2pass / mbtree=1 / bitrate=11500 / ratetol=1.0 / qcomp=0.60 / qpmin=0 / qpmax=69 / qpstep=4 / cplxblur=20.0 / qblur=0.5 / vbv_maxrate=31250 / vbv_bufsize=31250 / nal_hrd=none / filler=0 / ip_ratio=1.40 / aq=1:1.00
Language : Chinese
Default : Yes
Forced : No

Audio
ID : 2
Format : DTS
Format/Info : Digital Theater Systems
Codec ID : A_DTS
Duration : 1 h 30 min
Bit rate mode : Constant
Bit rate : 1 509 kb/s
Channel(s) : 2 channels
Channel layout : L R
Sampling rate : 48.0 kHz
Frame rate : 93.750 FPS (512 SPF)
Bit depth : 24 bits
Compression mode : Lossy
Stream size : 982 MiB (12%)
Title : Cops.And.Robbers.1979.CHINESE.1080p.BluRay.x264.DTS-FGT
Language : Chinese
Default : Yes
Forced : No

Text
ID : 3
Format : UTF-8
Codec ID : S_TEXT/UTF8
Codec ID/Info : UTF-8 Plain Text
Duration : 1 h 28 min
Bit rate : 43 b/s
Count of elements : 1043
Stream size : 28.2 KiB (0%)
Language : English
Default : Yes
Forced : No

Menu
00:00:00.000 : en:Chapter 01
00:11:42.880 : en:Chapter 02
00:19:35.480 : en:Chapter 03
00:25:28.600 : en:Chapter 04
00:33:03.120 : en:Chapter 05
00:38:48.240 : en:Chapter 06
00:46:49.560 : en:Chapter 07
00:54:25.440 : en:Chapter 08
01:03:23.000 : en:Chapter 09
01:16:46.600 : en:Chapter 10


磁力链接:

magnet:?xt=urn:btih:e71e3b5762a44827d627d3ae812b6952a9f593e9&dn=Cops.And.Robbers.1979.CHINESE.1080p.BluRay.x264.DTS-FGT&tr=http%3A%2F%2Ftracker.trackerfix.com%3A80%2Fannounce&tr=udp%3A%2F%2F9.rarbg.me%3A2980&tr=udp%3A%2F%2F9.rarbg.to%3A2970

上传的附件:

BT种子 - BT电影下载- 版权声明 1、本主题所有言论和图片纯属会员个人意见,与BT种子立场无关。
2、BT种子管理员和版主有权不事先通知发贴者而删除本文。
3、如本帖侵犯到任何版权问题,请立即告知本站,本站将及时予以删除BT种子和磁力链接并致以最深的歉意。

最新回复 (0)
返回
发新帖