喋血战士.Bloodshot.2020.1080p.AMZN.WEBRip.DDP5.1.x264-NTG 7.06 GB 2020 欧美 动作 科幻 WEBRip

BT种子 5天前 507

喋血战士2020电影海报

导演: 戴夫·威尔逊

编剧: 杰夫·瓦德洛 / 埃里克·海瑟尔 / 凯文·范霍克

主演: 范·迪塞尔 / 艾莎·冈萨雷斯 / 萨姆·修汉 / 托比·凯贝尔 / 妲露拉·莱莉 / 拉蒙尼·莫里斯 / 盖·皮尔斯 / 悉达尔斯·达南杰 / 泰勒·迈尔 / 亚历克斯·安洛斯 / 克莱德·伯宁 / 杰里米·博阿多 / 塔梅尔·伯贾克 / 亚历克斯·埃尔南德斯 / 约翰内斯·豪克尔·约翰内森 / 帕特里克·克尔顿

类型: 动作 / 科幻

制片国家/地区: 中国大陆 / 美国

语言: 英语

上映日期: 2020(中国大陆) / 2020-03-13(美国)

片长: 109分钟

又名: 血卫(台)

IMDb链接: tt1634106


喋血战士的剧情简介 · · · · · ·

  电影根据勇士漫画改编,讲述由范·迪塞尔扮演的士兵雷·加里森在战斗中意外阵亡,被RST公司利用尖端纳米技术起死回生,变身即时自愈、媲美超级电脑的超级英雄——喋血战士。苏醒的他执着于脑海中残存的记忆碎片,踏上为爱妻的复仇之路,却发现自己竟无法分清真实与虚幻...


电影截图

喋血战士1
喋血战士2
喋血战士3

Video
ID : 1
Format : AVC
Format/Info : Advanced Video Codec
Format profile : High@L4
Format settings : CABAC / 4 Ref Frames
Format settings, CABAC : Yes
Format settings, Reference frames : 4 frames
Codec ID : V_MPEG4/ISO/AVC
Duration : 1 h 49 min
Bit rate mode : Constant
Bit rate : 8 608 kb/s
Nominal bit rate : 10 000 kb/s
Width : 1 920 pixels
Height : 800 pixels
Display aspect ratio : 2.40:1
Frame rate mode : Constant
Frame rate : 23.976 (24000/1001) FPS
Color space : YUV
Chroma subsampling : 4:2:0
Bit depth : 8 bits
Scan type : Progressive
Bits/(Pixel*Frame) : 0.234
Stream size : 6.57 GiB (93%)
Default : Yes
Forced : No
Color range : Limited
Color primaries : BT.709
Transfer characteristics : BT.709
Matrix coefficients : BT.709

Audio
ID : 2
Format : E-AC-3
Format/Info : Enhanced AC-3
Commercial name : Dolby Digital Plus
Codec ID : A_EAC3
Duration : 1 h 49 min
Bit rate mode : Constant
Bit rate : 640 kb/s
Channel(s) : 6 channels
Channel layout : L R C LFE Ls Rs
Sampling rate : 48.0 kHz
Frame rate : 31.250 FPS (1536 SPF)
Compression mode : Lossy
Stream size : 500 MiB (7%)
Language : English
Service kind : Complete Main
Default : Yes
Forced : No

Text #1
ID : 3
Format : UTF-8
Codec ID : S_TEXT/UTF8
Codec ID/Info : UTF-8 Plain Text
Duration : 1 h 41 min
Bit rate : 46 b/s
Count of elements : 1150
Stream size : 34.9 KiB (0%)
Language : English
Default : No
Forced : No

Text #2
ID : 4
Format : UTF-8
Codec ID : S_TEXT/UTF8
Codec ID/Info : UTF-8 Plain Text
Duration : 1 h 47 min
Bit rate : 51 b/s
Count of elements : 1493
Stream size : 40.6 KiB (0%)
Title : SDH
Language : English
Default : No
Forced : No

Menu
00:00:00.000 : en:Studio Logo
00:01:02.000 : en:Scene 2
00:04:10.000 : en:Scene 3
00:05:09.000 : en:Scene 4
00:07:01.000 : en:Scene 5
00:08:51.000 : en:Scene 6
00:13:04.000 : en:Scene 7
00:17:31.000 : en:Scene 8
00:20:39.000 : en:Scene 9
00:22:46.000 : en:Scene 10
00:25:07.000 : en:Scene 11
00:27:57.000 : en:Scene 12
00:29:27.000 : en:Scene 13
00:32:12.000 : en:Scene 14
00:32:43.000 : en:Scene 15
00:38:27.000 : en:Scene 16
00:41:42.000 : en:Scene 17
00:43:21.000 : en:Scene 18
00:50:55.000 : en:Scene 19
00:52:44.000 : en:Scene 20
00:54:16.000 : en:Scene 21
00:56:21.000 : en:Scene 22
01:02:31.000 : en:Scene 23
01:08:10.000 : en:Scene 24
01:09:01.000 : en:Scene 25
01:09:51.000 : en:Scene 26
01:12:44.000 : en:Scene 27
01:17:38.000 : en:Scene 28
01:19:16.000 : en:Scene 29
01:22:21.000 : en:Scene 30
01:27:32.000 : en:Scene 31
01:28:15.000 : en:Scene 32
01:31:09.000 : en:Scene 33
01:35:20.000 : en:Scene 34
01:38:33.000 : en:Scene 35
01:42:38.000 : en:End Credits


磁力链接:

magnet:?xt=urn:btih:a7844bafe1f40be68b92453e1f86f763c6aa963c&dn=Bloodshot.2020.1080p.AMZN.WEBRip.DDP5.1.x264-NTG&tr=http%3A%2F%2Ftracker.trackerfix.com%3A80%2Fannounce&tr=udp%3A%2F%2F9.rarbg.me%3A2810&tr=udp%3A%2F%2F9.rarbg.to%3A2780

上传的附件:

BT种子 - BT电影下载- 版权声明 1、本主题所有言论和图片纯属会员个人意见,与BT种子立场无关。
2、BT种子管理员和版主有权不事先通知发贴者而删除本文。
3、如本帖侵犯到任何版权问题,请立即告知本站,本站将及时予以删除BT种子和磁力链接并致以最深的歉意。

最新回复 (0)
返回
发新帖