绅士们.The.Gentlemen.2019.1080p.AMZN.WEBRip.DDP5.1.x264-TEPES 7.76 GB 2019 欧美 动作 犯罪 WEBRip

BT种子 4天前 250

绅士们电影海报

导演: 盖·里奇

编剧: 盖·里奇 / 伊凡·阿特金森 / 马恩·戴维斯

主演: 马修·麦康纳 / 查理·汉纳姆 / 亨利·戈尔丁 / 米歇尔·道克瑞 / 杰瑞米·斯特朗 / 科林·法瑞尔 / 休·格兰特 / 琳·勒内 / 马克斯·班内特 / 布列塔尼·阿什沃思 / 伊川东吾 / 尤金娜·库日敏娜 / 乔丹·朗 / 杰森·王 / 可可·萨姆纳 / 拉塞尔·巴洛格 / 布鲁斯·钟 / 塞尔哈特·梅汀 / 杰森· 莱恩斯 / 奇迪·阿朱福 / 莉莉·弗雷泽 / 克里斯托弗·埃万格罗

类型: 动作 / 犯罪

制片国家/地区: 美国

语言: 英语

上映日期: 2020-01-24(美国)

片长: 113分钟

又名: 疯狂绅士帮(港) / 绅士追杀令(台) / 灌木 / 绅士 / 有钱人 / 纨绔子弟 / 布什 / Bush / Toff Guys

IMDb链接: tt8367814


绅士们的剧情简介 · · · · · ·

  本片讲述一个英国毒枭准备将他盈利丰厚的帝国卖给美国俄克拉荷马亿万富翁。麦康纳饰演这位欲将金盆洗手的毒枭,道克瑞饰演毒枭妻子。戈尔丁饰演一位越南黑帮。格兰特饰演一位拍到毒枭暗箱交易过程照片,欲用此来威胁毒枭的摄影师。法瑞尔的角色名为“Coach”,他是一位综合格斗训练师。


电影截图

绅士们1
绅士们2
绅士们3

Video
ID : 1
Format : AVC
Format/Info : Advanced Video Codec
Format profile : High@L4
Format settings : CABAC / 4 Ref Frames
Format settings, CABAC : Yes
Format settings, Reference frames : 4 frames
Codec ID : V_MPEG4/ISO/AVC
Duration : 1 h 53 min
Bit rate mode : Constant
Bit rate : 9 165 kb/s
Nominal bit rate : 10 000 kb/s
Width : 1 920 pixels
Height : 800 pixels
Display aspect ratio : 2.40:1
Frame rate mode : Constant
Frame rate : 23.976 (24000/1001) FPS
Color space : YUV
Chroma subsampling : 4:2:0
Bit depth : 8 bits
Scan type : Progressive
Bits/(Pixel*Frame) : 0.249
Stream size : 7.25 GiB (93%)
Default : Yes
Forced : No
Color range : Limited
Color primaries : BT.709
Transfer characteristics : BT.709
Matrix coefficients : BT.709

Audio
ID : 2
Format : E-AC-3
Format/Info : Enhanced AC-3
Commercial name : Dolby Digital Plus
Codec ID : A_EAC3
Duration : 1 h 53 min
Bit rate mode : Constant
Bit rate : 640 kb/s
Channel(s) : 6 channels
Channel layout : L R C LFE Ls Rs
Sampling rate : 48.0 kHz
Frame rate : 31.250 FPS (1536 SPF)
Compression mode : Lossy
Stream size : 518 MiB (7%)
Language : English
Service kind : Complete Main
Default : Yes
Forced : No

Text #1
ID : 3
Format : UTF-8
Codec ID : S_TEXT/UTF8
Codec ID/Info : UTF-8 Plain Text
Duration : 1 h 47 min
Bit rate : 84 b/s
Count of elements : 1812
Stream size : 67.0 KiB (0%)
Language : English
Default : No
Forced : No

Text #2
ID : 4
Format : UTF-8
Codec ID : S_TEXT/UTF8
Codec ID/Info : UTF-8 Plain Text
Duration : 1 h 50 min
Bit rate : 94 b/s
Count of elements : 2088
Stream size : 76.8 KiB (0%)
Title : SDH
Language : English
Default : No
Forced : No

Menu
00:00:00.000 : en:Studio Logo
00:00:38.000 : en:Scene 2
00:01:00.000 : en:Opening Credits
00:01:19.000 : en:Scene 4
00:02:14.000 : en:Title Sequence
00:04:03.000 : en:Scene 6
00:13:19.000 : en:Scene 7
00:22:08.000 : en:Scene 8
00:28:52.000 : en:Scene 9
00:35:29.000 : en:Scene 10
00:39:20.000 : en:Scene 11
00:43:52.000 : en:Scene 12
00:55:51.000 : en:Scene 13
01:06:29.000 : en:Scene 14
01:11:48.000 : en:Scene 15
01:29:00.000 : en:Scene 16
01:38:51.000 : en:Scene 17
01:48:14.000 : en:End Credits


磁力链接:

magnet:?xt=urn:btih:1e18fdc65dcfde60f361f48d2fbc1563b925a66e&dn=The.Gentlemen.2019.1080p.AMZN.WEBRip.DDP5.1.x264-TEPES&tr=http%3A%2F%2Ftracker.trackerfix.com%3A80%2Fannounce&tr=udp%3A%2F%2F9.rarbg.me%3A2840&tr=udp%3A%2F%2F9.rarbg.to%3A2980

上传的附件:

BT种子 - BT电影下载- 版权声明 1、本主题所有言论和图片纯属会员个人意见,与BT种子立场无关。
2、BT种子管理员和版主有权不事先通知发贴者而删除本文。
3、如本帖侵犯到任何版权问题,请立即告知本站,本站将及时予以删除BT种子和磁力链接并致以最深的歉意。

最新回复 (0)
返回
发新帖