猛禽小队和哈莉·奎茵.2020.1080p.AMZN.WEBRip.DDP5.1.x264-TEPES 7.51 GB 2020 欧美 动作 犯罪 WEBRip

BT种子 4天前 203

猛禽小队和哈莉·奎茵电影海报

导演: 阎羽茜

编剧: 克里斯蒂娜·霍德森 / 查克·狄克逊 / 乔丹·B·戈芬克尔 / 格雷格·兰德

主演: 玛格特·罗比 / 玛丽·伊丽莎白·温斯特德 / 罗茜·佩雷兹 / 朱尼·斯莫利特 / 伊万·麦克格雷格 / 埃拉·杰伊·巴斯科 / 克里斯·梅西纳 / 黄阿丽 / 戴维·尤里 / 萨拉·蒙特斯 / 伊莎贝尔·帕克扎德 / 丹尼尔·伯哈特 / 帕洛马·拉比诺夫 / 德里克·威尔逊 / 乔·布卡罗三世 / 弗朗克西斯·周 / 布鲁诺·奥利弗 / 马修·维利希 / 杰里米·丹茨林格 / 迈克尔·马西尼 / 杰西·布什 / 史蒂文·威廉姆斯 / 夏洛林·阿莫亚 / 罗伯特·卡特里尼 / 埃迪·阿尔法诺 / 普拉莫德库马尔 / K.K. 巴雷特 / 西蒙·瑞 / 凯莱布·斯比尔亚兹 / 萨拉·贝克 / 埃夫卡·科瓦拉西尤斯 / 山姆·哈格雷夫 / 丹尼斯·基弗 / 博亚娜·诺瓦科维奇 / 埃里克·迈克尔·科尔 / 提姆·里格比 / 大卫·安东尼·布廖内 / 杰拉德·唐尼 / 埃迪·J.费尔南德斯 / 尼科·格莱瑟姆 / 朱迪·凯恩 / 杰夫·里帕瑞 / 詹妮尔·麦基 / 伊戈·米基塔斯 / 安东尼·莫利纳利 / 迪索·拉莫斯 / 凯伦·特利哈

类型: 动作 / 犯罪 / 冒险

官方网站: www.birdsofpreymovie.net

制片国家/地区: 美国

语言: 英语

上映日期: 2020-02-07(美国)

片长: 109分钟

又名: 哈莉·奎因:猛禽小队 / 猛禽小队 / 猛禽暴队:解疯小丑女(港) / 猛禽小队:小丑女大解放(台) / 猛禽小队(以及一个哈莉·奎茵的奇妙解放) / 猛禽小队与哈莉·奎茵的奇妙解放 / Birds of Prey / Birds of Prey (And the Fantabulous Emancipation of One Harley Quinn) / Harley Quinn: Birds of Prey

IMDb链接: tt7713068


猛禽小队和哈莉·奎茵的剧情简介 · · · · · ·

  你听过一个有关警察、歌手、神经病和黑手党公主的故事吗?《猛禽小队和哈莉·奎茵》是一个只有哈莉·奎茵本人才能讲出来的超乎寻常的奇妙传奇。哥谭市最为凶残自大的恶棍罗曼·赛恩尼斯和他狂热的手下萨斯为了寻找一个年轻女孩卡斯,将这座城市翻了个底朝天。哈莉、女猎手、黑金丝雀和蕾妮·蒙托亚不期而遇,看似违和的四人组不得不团结一致、携手作战,才有可能打败罗曼。


电影截图

猛禽小队和哈莉·奎茵1
猛禽小队和哈莉·奎茵2
猛禽小队和哈莉·奎茵3

Video
ID : 1
Format : AVC
Format/Info : Advanced Video Codec
Format profile : High@L4
Format settings : CABAC / 4 Ref Frames
Format settings, CABAC : Yes
Format settings, Reference frames : 4 frames
Codec ID : V_MPEG4/ISO/AVC
Duration : 1 h 48 min
Bit rate mode : Constant
Bit rate : 9 242 kb/s
Nominal bit rate : 10 000 kb/s
Width : 1 920 pixels
Height : 800 pixels
Display aspect ratio : 2.40:1
Frame rate mode : Constant
Frame rate : 23.976 (24000/1001) FPS
Color space : YUV
Chroma subsampling : 4:2:0
Bit depth : 8 bits
Scan type : Progressive
Bits/(Pixel*Frame) : 0.251
Stream size : 7.03 GiB (94%)
Default : Yes
Forced : No
Color range : Limited
Color primaries : BT.709
Transfer characteristics : BT.709
Matrix coefficients : BT.709

Audio
ID : 2
Format : E-AC-3
Format/Info : Enhanced AC-3
Commercial name : Dolby Digital Plus
Codec ID : A_EAC3
Duration : 1 h 48 min
Bit rate mode : Constant
Bit rate : 640 kb/s
Channel(s) : 6 channels
Channel layout : L R C LFE Ls Rs
Sampling rate : 48.0 kHz
Frame rate : 31.250 FPS (1536 SPF)
Compression mode : Lossy
Stream size : 498 MiB (6%)
Language : English
Service kind : Complete Main
Default : Yes
Forced : No

Text #1
ID : 3
Format : UTF-8
Codec ID : S_TEXT/UTF8
Codec ID/Info : UTF-8 Plain Text
Duration : 1 h 48 min
Bit rate : 53 b/s
Count of elements : 1586
Stream size : 42.5 KiB (0%)
Language : English
Default : No
Forced : No

Text #2
ID : 4
Format : UTF-8
Codec ID : S_TEXT/UTF8
Codec ID/Info : UTF-8 Plain Text
Duration : 1 h 48 min
Bit rate : 75 b/s
Count of elements : 2100
Stream size : 59.8 KiB (0%)
Title : SDH
Language : English
Default : No
Forced : No

Menu
00:00:00.000 : en:Studio Logos
00:00:30.000 : en:Harley Quinn\'s backstory
00:01:56.000 : en:Trying to get her life together
00:05:43.000 : en:A chance to be a new woman
00:07:59.000 : en:Title Sequence
00:08:07.000 : en:Meet the cop
00:10:44.000 : en:Roman Sionis aka Black Mask
00:12:41.000 : en:Life without immunity
00:17:52.000 : en:Montoya makes her case to the Captain
00:21:37.000 : en:Ambush at the station
00:23:55.000 : en:The Black Canary
00:33:39.000 : en:Caught in the cross-hairs
00:38:01.000 : en:An unexpected complication
00:40:15.000 : en:An offer to help Sionis
00:46:29.000 : en:Breaking Cass out of prison
00:53:43.000 : en:Harley and Cass bond
01:01:14.000 : en:The Huntress
01:04:24.000 : en:Roman is losing it
01:06:53.000 : en:Things get worse for Montoya
01:08:09.000 : en:The cost of business
01:14:07.000 : en:Meeting at the amusement park
01:23:50.000 : en:Girl power
01:29:53.000 : en:Black Canary has to sing
01:31:25.000 : en:There is power in fear
01:37:34.000 : en:The emancipation of everyone
01:41:24.000 : en:End Credits


磁力链接:

magnet:?xt=urn:btih:0bfa7c5bc9f4616a11160c0d90389dd42a8b8027&dn=Birds.of.Prey.and.the.Fantabulous.Emancipation.of.One.Harley.Quinn.2020.1080p.AMZN.WEBRip.DDP5.1.x264-TEPES&tr=http%3A%2F%2Ftracker.trackerfix.com%3A80%2Fannounce&tr=udp%3A%2F%2F9.rarbg.me%3A2970&tr=udp%3A%2F%2F9.rarbg.to%3A2880

上传的附件:

BT种子 - BT电影下载- 版权声明 1、本主题所有言论和图片纯属会员个人意见,与BT种子立场无关。
2、BT种子管理员和版主有权不事先通知发贴者而删除本文。
3、如本帖侵犯到任何版权问题,请立即告知本站,本站将及时予以删除BT种子和磁力链接并致以最深的歉意。

最新回复 (0)
返回
发新帖