航海王之狂热行动.One.Piece.Stampede.2019.JAPANESE.1080p.BluRay.x264.DTS-FGT 10.36 GB 2019 日本 动作 动画 BluRay

BT种子 2月前 378

海贼王狂热行动电影海报

导演: 大塚隆史

编剧: 尾田荣一郎 / 大塚隆史 / 富冈淳广

主演: 田中真弓 / 冈村明美 / 中井和哉 / 山口胜平 / 平田广明 / 大谷育江 / 山口由里子 / 矢尾一树 / 长岛雄一 / 古谷彻 / 千叶繁 / 三石琴乃 / 神谷浩史 / 大场真人 / 关智一 / 大友龙三郎 / 挂川裕彦 / 西原久美子 / 岛田敏 / 桧山修之 / 松冈洋子 / 浪川大辅 / 真殿光昭 / 龙田直树 / 竹本英史 / 楠大典 / 宗矢树赖 / 高木礼子 / 滨田贤二 / 加濑康之 / 森久保祥太郎 / 石田彰 / 大川透 / 中博史 / 立木文彦 / 置鲇龙太郎 / 泽木郁也 / 中友子 / 野田顺子 / 土井美加 / 永野广一 / 伊仓一惠 / 太田真一郎 / 花田光 / 小山刚志 / 服卷浩司 / 山田真一 / 高冢正也 / 平井启二 / 清水健佑 / 田边幸辅 / 坂井易直 / 寺崎千波也 / 美藤大树 / 内海安希子 / 柴田平美 / 千须和侑里子 / 细田启信 / 堤勇高 / 日野佑希人 / 藤井弘辉 / 小川功二 / 大森万梨乃 / 河谷麻瑚 / 坂本刚史 / 柴田美奈 / 川岛壮雄 / 冈部枫子 / 森夏美 / 加藤雅也 / 福吉贵文 / 藤尾悠 / 新垣泉子 / 中原理菜 / 高桥幸 / 金井杏树 / 小山波留 / 辻本祐佳 / 渡边清子 / 大门桃子 / 岩崎广辉 / 山本凉介 / 岩上隼也 / 龙梦柔 / 竹中直人 / 指原莉乃 / 山里亮太 / 中山裕介 / 津嘉山正种 / 大塚明夫 / 园部启一 / 古川登志夫 / 矶部勉

类型: 动画 / 冒险

官方网站: www.onepiece-movie.jp

制片国家/地区: 日本

语言: 日语

上映日期: 2019-10-18(中国大陆) / 2019-08-09(日本)

片长: 101分钟

又名: 航海王:夺宝争霸战(台) / 海贼王:狂热行动

IMDb链接: tt9430698


航海王之狂热行动的剧情简介 · · · · · ·

  《航海王:狂热行动》是“航海王系列”第14部剧场版,也是《航海王》动画二十周年纪念之作。

  以超新星为代表的众多航海家纷纷现身世界最大的航海家庆典——航海世博会。草帽航海团也收到了主办者费斯塔的邀请函,搭乘万里阳光号前往。原以为航海家们的狂热世博会只是为争夺“航海王罗杰留下的宝藏”,就在神秘宝藏争夺战如火如荼之际,阻挡在路飞等人面前的可怕威胁道格拉斯·巴雷特突然现身!暗藏阴谋的敌我混战一触即发……

航海王:狂热行动 ONE PIECE STAMPEDE 获奖情况

第43届日本电影学院奖  (2020)

最佳动画片(提名)


航海王之狂热行动电影截图

航海王之狂热行动1
航海王之狂热行动2
航海王之狂热行动3

Video
ID : 1
Format : AVC
Format/Info : Advanced Video Codec
Format profile : High@L4.1
Format settings : CABAC / 4 Ref Frames
Format settings, CABAC : Yes
Format settings, Reference frames : 4 frames
Codec ID : V_MPEG4/ISO/AVC
Duration : 1 h 42 min
Bit rate : 11.5 Mb/s
Width : 1 920 pixels
Height : 1 080 pixels
Display aspect ratio : 16:9
Frame rate mode : Constant
Frame rate : 23.976 (24000/1001) FPS
Color space : YUV
Chroma subsampling : 4:2:0
Bit depth : 8 bits
Scan type : Progressive
Bits/(Pixel*Frame) : 0.231
Stream size : 8.21 GiB (79%)
Title : One.Piece.Stampede.2019.JAPANESE.1080p.BluRay.x264.DTS-FGT
Writing library : x264 core 148 r2748 97eaef2
Encoding settings : cabac=1 / ref=4 / deblock=1:1:1 / analyse=0x3:0x113 / me=umh / subme=8 / psy=1 / psy_rd=0.50:0.00 / mixed_ref=1 / me_range=32 / chroma_me=1 / trellis=2 / 8x8dct=1 / cqm=0 / deadzone=21,11 / fast_pskip=1 / chroma_qp_offset=-2 / threads=34 / lookahead_threads=3 / sliced_threads=0 / nr=0 / decimate=1 / interlaced=0 / bluray_compat=0 / constrained_intra=0 / bframes=3 / b_pyramid=2 / b_adapt=1 / b_bias=0 / direct=3 / weightb=1 / open_gop=0 / weightp=2 / keyint=240 / keyint_min=24 / scenecut=40 / intra_refresh=0 / rc_lookahead=50 / rc=2pass / mbtree=1 / bitrate=11500 / ratetol=1.0 / qcomp=0.60 / qpmin=0 / qpmax=69 / qpstep=4 / cplxblur=20.0 / qblur=0.5 / vbv_maxrate=31250 / vbv_bufsize=31250 / nal_hrd=none / filler=0 / ip_ratio=1.40 / aq=3:0.60
Language : English
Default : Yes
Forced : No

Audio #1
ID : 2
Format : DTS
Format/Info : Digital Theater Systems
Codec ID : A_DTS
Duration : 1 h 42 min
Bit rate mode : Constant
Bit rate : 1 509 kb/s
Channel(s) : 6 channels
Channel layout : C L R Ls Rs LFE
Sampling rate : 48.0 kHz
Frame rate : 93.750 FPS (512 SPF)
Bit depth : 16 bits
Compression mode : Lossy
Stream size : 1.08 GiB (10%)
Title : One.Piece.Stampede.2019.JAPANESE.1080p.BluRay.x264.DTS-FGT
Language : Japanese
Default : Yes
Forced : No

Audio #2
ID : 3
Format : DTS
Format/Info : Digital Theater Systems
Codec ID : A_DTS
Duration : 1 h 42 min
Bit rate mode : Constant
Bit rate : 1 509 kb/s
Channel(s) : 6 channels
Channel layout : C L R Ls Rs LFE
Sampling rate : 48.0 kHz
Frame rate : 93.750 FPS (512 SPF)
Bit depth : 16 bits
Compression mode : Lossy
Stream size : 1.08 GiB (10%)
Title : One.Piece.Stampede.2019.JAPANESE.1080p.BluRay.x264.DTS-FGT
Language : English
Default : No
Forced : No

Text
ID : 4
Format : UTF-8
Codec ID : S_TEXT/UTF8
Codec ID/Info : UTF-8 Plain Text
Duration : 1 h 40 min
Bit rate : 58 b/s
Count of elements : 1375
Stream size : 43.3 KiB (0%)
Language : English
Default : Yes
Forced : No

Menu
00:00:00.000 : en:Chapter 01
00:06:00.193 : en:Chapter 02
00:10:20.620 : en:Chapter 03
00:16:41.917 : en:Chapter 04
00:24:20.167 : en:Chapter 05
00:29:30.935 : en:Chapter 06
00:34:48.419 : en:Chapter 07
00:41:44.919 : en:Chapter 08
00:48:07.551 : en:Chapter 09
00:56:30.303 : en:Chapter 10
01:04:16.853 : en:Chapter 11
01:11:32.871 : en:Chapter 12
01:17:07.831 : en:Chapter 13
01:23:39.014 : en:Chapter 14
01:32:47.478 : en:Chapter 15
01:41:07.061 : en:Chapter 16
01:42:00.114 : en:Chapter 17


磁力链接:

magnet:?xt=urn:btih:65f0a13e0facb1167ef1bfecb066af3a78317628&dn=One.Piece.Stampede.2019.JAPANESE.1080p.BluRay.x264.DTS-FGT&tr=http%3A%2F%2Ftracker.trackerfix.com%3A80%2Fannounce&tr=udp%3A%2F%2F9.rarbg.me%3A2970&tr=udp%3A%2F%2F9.rarbg.to%3A2900

上传的附件:

BT种子 - BT电影下载- 版权声明 1、本主题所有言论和图片纯属会员个人意见,与BT种子立场无关。
2、BT种子管理员和版主有权不事先通知发贴者而删除本文。
3、如本帖侵犯到任何版权问题,请立即告知本站,本站将及时予以删除BT种子和磁力链接并致以最深的歉意。

最新回复 (0)
返回
发新帖