为什么猫都叫不来.Cats.Dont.Come.When.You.Call.2016.JAPANESE.1080p.BluRay.x264.DTS-iKiW 9.77 GB 日语简繁中字 2016 日本 剧情 BluRay

BT种子 2月前 338

为什么猫都叫不来海报

导演: 山本透

编剧: 林民夫 / 山本透

主演: 风间俊介 / 鹤野刚士 / 松冈茉优

类型: 剧情

官方网站: nekoyon-movie.com

制片国家/地区: 日本

语言: 日语

上映日期: 2016-01-30(日本)

片长: 103分钟

又名: 猫咪去哪儿(港) / Cats Don't Come When You Call / Neko nanka yondemo konai

IMDb链接: tt4202960


为什么猫都叫不来的剧情简介 · · · · · ·

  《为什么猫都叫不来》是以杉作代表作《酷猫小黑的生活日记(原名:クロ號)」》中登场的两只猫为原型创作的绘本漫画。喜欢狗的主人公因为哥哥突然捡回来两只野猫而开始与猫一起生活。风间俊介出演曾经当过拳击手的主人公光雄,鹤野刚士出演靠画漫画为生的哥哥,松冈茉优出演女主角小梅。

  真人电影版预定2016年上映。此外,漫画原作的大结局第4卷将于12月4日发售。


为什么猫都叫不来截图1

为什么猫都叫不来截图2

为什么猫都叫不来截图3

Video
ID : 1
Format : AVC
Format/Info : Advanced Video Codec
Format profile : High@L4.1
Format settings : CABAC / 4 Ref Frames
Format settings, CABAC : Yes
Format settings, Reference frames : 4 frames
Codec ID : V_MPEG4/ISO/AVC
Duration : 1 h 42 min
Bit rate : 12.1 Mb/s
Width : 1 920 pixels
Height : 1 036 pixels
Display aspect ratio : 1.85:1
Frame rate mode : Constant
Frame rate : 23.976 (24000/1001) FPS
Color space : YUV
Chroma subsampling : 4:2:0
Bit depth : 8 bits
Scan type : Progressive
Bits/(Pixel*Frame) : 0.253
Stream size : 8.66 GiB (89%)
Writing library : x264 core 129 r2245+704+36 8e61944 tMod+MixAQ [8-bit@4:2:0 X86_64]
Encoding settings : cabac=1 / ref=4 / deblock=1:-3:-3 / analyse=0x3:0x133 / me=umh / subme=11 / psy=1 / fade_compensate=0.00 / psy_rd=1.05:0.10 / mixed_ref=1 / me_range=64 / chroma_me=1 / trellis=2 / 8x8dct=1 / cqm=0 / deadzone=21,11 / fast_pskip=0 / chroma_qp_offset=-3 / threads=18 / lookahead_threads=3 / sliced_threads=0 / nr=0 / decimate=0 / interlaced=0 / bluray_compat=0 / constrained_intra=0 / fgo=0 / bframes=10 / b_pyramid=2 / b_adapt=2 / b_bias=0 / direct=3 / weightb=1 / open_gop=0 / weightp=2 / keyint=250 / keyint_min=23 / scenecut=40 / intra_refresh=0 / rc_lookahead=80 / rc=2pass / mbtree=1 / bitrate=12062 / ratetol=1.0 / qcomp=0.70 / qpmin=0 / qpmax=69 / qpstep=4 / cplxblur=20.0 / qblur=0.5 / ip_ratio=1.40 / aq=3 / aq-strength=0.85 / aq-sensitivity=10.00 / aq-ifactor=1.00 / aq-pfactor=1.00 / aq-bfactor=1.00 / aq2=0
Language : Japanese
Default : Yes
Forced : No
Color range : Limited
Matrix coefficients : BT.709

Audio
ID : 2
Format : DTS
Format/Info : Digital Theater Systems
Codec ID : A_DTS
Duration : 1 h 42 min
Bit rate mode : Constant
Bit rate : 1 509 kb/s
Channel(s) : 6 channels
Channel layout : C L R Ls Rs LFE
Sampling rate : 48.0 kHz
Frame rate : 93.750 FPS (512 SPF)
Bit depth : 16 bits
Compression mode : Lossy
Stream size : 1.08 GiB (11%)
Language : Japanese
Default : Yes
Forced : No

Text #1
ID : 3
Format : UTF-8
Codec ID : S_TEXT/UTF8
Codec ID/Info : UTF-8 Plain Text
Duration : 1 h 38 min
Bit rate : 26 b/s
Count of elements : 849
Stream size : 19.1 KiB (0%)
Language : English
Default : Yes
Forced : No

Text #2
ID : 4
Format : ASS
Codec ID : S_TEXT/ASS
Codec ID/Info : Advanced Sub Station Alpha
Duration : 1 h 39 min
Bit rate : 46 b/s
Count of elements : 891
Compression mode : Lossless
Stream size : 34.1 KiB (0%)
Title : Simplified
Language : Chinese
Default : No
Forced : No

Text #3
ID : 5
Format : ASS
Codec ID : S_TEXT/ASS
Codec ID/Info : Advanced Sub Station Alpha
Duration : 1 h 39 min
Bit rate : 46 b/s
Count of elements : 891
Compression mode : Lossless
Stream size : 34.1 KiB (0%)
Title : Traditional
Language : Chinese
Default : No
Forced : No

Menu
00:00:00.000 : en:00:00:00.000
00:09:27.817 : en:00:09:27.817
00:17:57.159 : en:00:17:57.159
00:26:48.982 : en:00:26:48.982
00:34:14.802 : en:00:34:14.802
00:38:00.945 : en:00:38:00.945
00:46:17.733 : en:00:46:17.733
00:52:25.433 : en:00:52:25.433
00:59:12.131 : en:00:59:12.131
01:03:24.509 : en:01:03:24.509
01:08:31.190 : en:01:08:31.190
01:19:50.410 : en:01:19:50.410
01:27:37.835 : en:01:27:37.835
01:38:37.912 : en:01:38:37.912
01:42:46.702 : en:01:42:46.702


磁力链接:

magnet:?xt=urn:btih:0da7de3f22728e3b2f074aef1c8f38fb639e6385&dn=Cats.Dont.Come.When.You.Call.2016.JAPANESE.1080p.BluRay.x264.DTS-iKiW&tr=http%3A%2F%2Ftracker.trackerfix.com%3A80%2Fannounce&tr=udp%3A%2F%2F9.rarbg.me%3A2840&tr=udp%3A%2F%2F9.rarbg.to%3A2770

上传的附件:

BT种子 - BT电影下载- 版权声明 1、本主题所有言论和图片纯属会员个人意见,与BT种子立场无关。
2、BT种子管理员和版主有权不事先通知发贴者而删除本文。
3、如本帖侵犯到任何版权问题,请立即告知本站,本站将及时予以删除BT种子和磁力链接并致以最深的歉意。

最新回复 (0)
返回
发新帖